  0
SECTION
  2
HEADER
  9
$ACADVER
  1
AC1024
  9
$ACADMAINTVER
 70
   226
  9
$DWGCODEPAGE
  3
ANSI_1252
  9
$LASTSAVEDBY
  1
jrml
  9
$INSBASE
 10
0.0
 20
0.0
 30
0.0
  9
$EXTMIN
 10
100.5344256349296
 20
153.677363174962
 30
0.0
  9
$EXTMAX
 10
399.4411158127924
 20
508.9996363162724
 30
0.0
  9
$LIMMIN
 10
-84448.80787550776
 20
-35991.00625786399
  9
$LIMMAX
 10
175452.2600547603
 20
110464.6611467649
  9
$ORTHOMODE
 70
     0
  9
$REGENMODE
 70
     1
  9
$FILLMODE
 70
     1
  9
$QTEXTMODE
 70
     0
  9
$MIRRTEXT
 70
     0
  9
$LTSCALE
 40
1.0
  9
$ATTMODE
 70
     1
  9
$TEXTSIZE
 40
5.0
  9
$TRACEWID
 40
1.0
  9
$TEXTSTYLE
  7
Arial
  9
$CLAYER
  8
GM_Sichtbare
  9
$CELTYPE
  6
ByLayer
  9
$CECOLOR
 62
   256
  9
$CELTSCALE
 40
1.0
  9
$DISPSILH
 70
     0
  9
$DIMSCALE
 40
1.0
  9
$DIMASZ
 40
2.0
  9
$DIMEXO
 40
5.0
  9
$DIMDLI
 40
7.0
  9
$DIMRND
 40
0.0
  9
$DIMDLE
 40
2.0
  9
$DIMEXE
 40
2.0
  9
$DIMTP
 40
0.0
  9
$DIMTM
 40
0.0
  9
$DIMTXT
 40
3.5
  9
$DIMCEN
 40
2.0
  9
$DIMTSZ
 40
0.0
  9
$DIMTOL
 70
     0
  9
$DIMLIM
 70
     0
  9
$DIMTIH
 70
     0
  9
$DIMTOH
 70
     0
  9
$DIMSE1
 70
     0
  9
$DIMSE2
 70
     0
  9
$DIMTAD
 70
     1
  9
$DIMZIN
 70
     8
  9
$DIMBLK
  1

  9
$DIMASO
 70
     1
  9
$DIMSHO
 70
     1
  9
$DIMPOST
  1

  9
$DIMAPOST
  1

  9
$DIMALT
 70
     0
  9
$DIMALTD
 70
     2
  9
$DIMALTF
 40
25.4
  9
$DIMLFAC
 40
1.0
  9
$DIMTOFL
 70
     1
  9
$DIMTVP
 40
0.0
  9
$DIMTIX
 70
     1
  9
$DIMSOXD
 70
     0
  9
$DIMSAH
 70
     0
  9
$DIMBLK1
  1

  9
$DIMBLK2
  1

  9
$DIMSTYLE
  2
Bemaßung
  9
$DIMCLRD
 70
     7
  9
$DIMCLRE
 70
     7
  9
$DIMCLRT
 70
     7
  9
$DIMTFAC
 40
1.0
  9
$DIMGAP
 40
1.0
  9
$DIMJUST
 70
     0
  9
$DIMSD1
 70
     0
  9
$DIMSD2
 70
     0
  9
$DIMTOLJ
 70
     1
  9
$DIMTZIN
 70
     0
  9
$DIMALTZ
 70
     0
  9
$DIMALTTZ
 70
     0
  9
$DIMUPT
 70
     0
  9
$DIMDEC
 70
     0
  9
$DIMTDEC
 70
     0
  9
$DIMALTU
 70
     2
  9
$DIMALTTD
 70
     2
  9
$DIMTXSTY
  7
Standard
  9
$DIMAUNIT
 70
     0
  9
$DIMADEC
 70
     1
  9
$DIMALTRND
 40
0.0
  9
$DIMAZIN
 70
     2
  9
$DIMDSEP
 70
    46
  9
$DIMATFIT
 70
     3
  9
$DIMFRAC
 70
     0
  9
$DIMLDRBLK
  1

  9
$DIMLUNIT
 70
     2
  9
$DIMLWD
 70
    -2
  9
$DIMLWE
 70
    -2
  9
$DIMTMOVE
 70
     2
  9
$DIMFXL
 40
1.0
  9
$DIMFXLON
 70
     0
  9
$DIMJOGANG
 40
0.7853981633974483
  9
$DIMTFILL
 70
     0
  9
$DIMTFILLCLR
 70
     0
  9
$DIMARCSYM
 70
     0
  9
$DIMLTYPE
  6

  9
$DIMLTEX1
  6

  9
$DIMLTEX2
  6

  9
$DIMTXTDIRECTION
 70
     0
  9
$LUNITS
 70
     2
  9
$LUPREC
 70
     1
  9
$SKETCHINC
 40
1.0
  9
$FILLETRAD
 40
0.0
  9
$AUNITS
 70
     0
  9
$AUPREC
 70
     1
  9
$MENU
  1
.
  9
$ELEVATION
 40
0.0
  9
$PELEVATION
 40
0.0
  9
$THICKNESS
 40
0.0
  9
$LIMCHECK
 70
     0
  9
$CHAMFERA
 40
10.0
  9
$CHAMFERB
 40
10.0
  9
$CHAMFERC
 40
20.0
  9
$CHAMFERD
 40
0.0
  9
$SKPOLY
 70
     0
  9
$TDCREATE
 40
2459237.399004630
  9
$TDUCREATE
 40
2459237.357337963
  9
$TDUPDATE
 40
2459237.399803241
  9
$TDUUPDATE
 40
2459237.358136574
  9
$TDINDWG
 40
0.0007986111
  9
$TDUSRTIMER
 40
0.0007986111
  9
$USRTIMER
 70
     1
  9
$ANGBASE
 50
0.0
  9
$ANGDIR
 70
     0
  9
$PDMODE
 70
     0
  9
$PDSIZE
 40
-2.0
  9
$PLINEWID
 40
0.0
  9
$SPLFRAME
 70
     0
  9
$SPLINETYPE
 70
     6
  9
$SPLINESEGS
 70
     8
  9
$HANDSEED
  5
10884
  9
$SURFTAB1
 70
     6
  9
$SURFTAB2
 70
     6
  9
$SURFTYPE
 70
     6
  9
$SURFU
 70
     6
  9
$SURFV
 70
     6
  9
$UCSBASE
  2

  9
$UCSNAME
  2

  9
$UCSORG
 10
0.0
 20
0.0
 30
0.0
  9
$UCSXDIR
 10
1.0
 20
0.0
 30
0.0
  9
$UCSYDIR
 10
0.0
 20
1.0
 30
0.0
  9
$UCSORTHOREF
  2

  9
$UCSORTHOVIEW
 70
     0
  9
$UCSORGTOP
 10
0.0
 20
0.0
 30
0.0
  9
$UCSORGBOTTOM
 10
0.0
 20
0.0
 30
0.0
  9
$UCSORGLEFT
 10
0.0
 20
0.0
 30
0.0
  9
$UCSORGRIGHT
 10
0.0
 20
0.0
 30
0.0
  9
$UCSORGFRONT
 10
0.0
 20
0.0
 30
0.0
  9
$UCSORGBACK
 10
0.0
 20
0.0
 30
0.0
  9
$PUCSBASE
  2

  9
$PUCSNAME
  2

  9
$PUCSORG
 10
0.0
 20
0.0
 30
0.0
  9
$PUCSXDIR
 10
1.0
 20
0.0
 30
0.0
  9
$PUCSYDIR
 10
0.0
 20
1.0
 30
0.0
  9
$PUCSORTHOREF
  2

  9
$PUCSORTHOVIEW
 70
     0
  9
$PUCSORGTOP
 10
0.0
 20
0.0
 30
0.0
  9
$PUCSORGBOTTOM
 10
0.0
 20
0.0
 30
0.0
  9
$PUCSORGLEFT
 10
0.0
 20
0.0
 30
0.0
  9
$PUCSORGRIGHT
 10
0.0
 20
0.0
 30
0.0
  9
$PUCSORGFRONT
 10
0.0
 20
0.0
 30
0.0
  9
$PUCSORGBACK
 10
0.0
 20
0.0
 30
0.0
  9
$USERI1
 70
     0
  9
$USERI2
 70
     0
  9
$USERI3
 70
     0
  9
$USERI4
 70
     0
  9
$USERI5
 70
     0
  9
$USERR1
 40
0.0
  9
$USERR2
 40
0.0
  9
$USERR3
 40
0.0
  9
$USERR4
 40
0.0
  9
$USERR5
 40
0.0
  9
$WORLDVIEW
 70
     1
  9
$SHADEDGE
 70
     3
  9
$SHADEDIF
 70
    70
  9
$TILEMODE
 70
     1
  9
$MAXACTVP
 70
    48
  9
$PINSBASE
 10
0.0
 20
0.0
 30
0.0
  9
$PLIMCHECK
 70
     0
  9
$PEXTMIN
 10
0.0
 20
0.0
 30
0.0
  9
$PEXTMAX
 10
0.0
 20
0.0
 30
0.0
  9
$PLIMMIN
 10
0.0
 20
0.0
  9
$PLIMMAX
 10
12.0
 20
9.0
  9
$UNITMODE
 70
     0
  9
$VISRETAIN
 70
     1
  9
$PLINEGEN
 70
     0
  9
$PSLTSCALE
 70
     1
  9
$TREEDEPTH
 70
  3020
  9
$CMLSTYLE
  2
Standard
  9
$CMLJUST
 70
     0
  9
$CMLSCALE
 40
20.0
  9
$PROXYGRAPHICS
 70
     1
  9
$MEASUREMENT
 70
     1
  9
$CELWEIGHT
370
    -1
  9
$ENDCAPS
280
     0
  9
$JOINSTYLE
280
     0
  9
$LWDISPLAY
290
     0
  9
$INSUNITS
 70
     4
  9
$HYPERLINKBASE
  1

  9
$STYLESHEET
  1

  9
$XEDIT
290
     1
  9
$CEPSNTYPE
380
     0
  9
$PSTYLEMODE
290
     1
  9
$FINGERPRINTGUID
  2
{55610BAF-D9BD-204D-AA61-2501951FC54A}
  9
$VERSIONGUID
  2
{6E38A69E-2B0A-A64E-9FC3-0BFA67BA6810}
  9
$EXTNAMES
290
     1
  9
$PSVPSCALE
 40
0.0
  9
$OLESTARTUP
290
     0
  9
$SORTENTS
280
    97
  9
$INDEXCTL
280
     0
  9
$HIDETEXT
280
     1
  9
$XCLIPFRAME
280
     0
  9
$HALOGAP
280
     0
  9
$OBSCOLOR
 70
   257
  9
$OBSLTYPE
280
     0
  9
$INTERSECTIONDISPLAY
280
     0
  9
$INTERSECTIONCOLOR
 70
   257
  9
$DIMASSOC
280
     2
  9
$PROJECTNAME
  1

  9
$CAMERADISPLAY
290
     0
  9
$LENSLENGTH
 40
50.0
  9
$CAMERAHEIGHT
 40
0.0
  9
$STEPSPERSEC
 40
2.0
  9
$STEPSIZE
 40
6.0
  9
$3DDWFPREC
 40
2.0
  9
$PSOLWIDTH
 40
0.25
  9
$PSOLHEIGHT
 40
4.0
  9
$LOFTANG1
 40
1.570796326794896
  9
$LOFTANG2
 40
1.570796326794896
  9
$LOFTMAG1
 40
0.0
  9
$LOFTMAG2
 40
0.0
  9
$LOFTPARAM
 70
     7
  9
$LOFTNORMALS
280
     1
  9
$LATITUDE
 40
37.795
  9
$LONGITUDE
 40
-122.394
  9
$NORTHDIRECTION
 40
0.0
  9
$TIMEZONE
 70
 -8000
  9
$LIGHTGLYPHDISPLAY
280
     1
  9
$TILEMODELIGHTSYNCH
280
     1
  9
$CMATERIAL
347
5E9
  9
$SOLIDHIST
280
     1
  9
$SHOWHIST
280
     1
  9
$DWFFRAME
280
     2
  9
$DGNFRAME
280
     0
  9
$REALWORLDSCALE
290
     1
  9
$INTERFERECOLOR
 62
     1
  9
$INTERFEREOBJVS
345
60B
  9
$INTERFEREVPVS
346
608
  9
$CSHADOW
280
     0
  9
$SHADOWPLANELOCATION
 40
0.0
  0
ENDSEC
  0
SECTION
  2
CLASSES
  0
CLASS
  1
ACDBDICTIONARYWDFLT
  2
AcDbDictionaryWithDefault
  3
ObjectDBX Classes
 90
        0
 91
        1
280
     0
281
     0
  0
CLASS
  1
DICTIONARYVAR
  2
AcDbDictionaryVar
  3
ObjectDBX Classes
 90
        0
 91
       14
280
     0
281
     0
  0
CLASS
  1
PLOTSETTINGS
  2
AcDbPlotSettings
  3
ObjectDBX Classes
 90
        0
 91
       21
280
     0
281
     0
  0
CLASS
  1
TABLESTYLE
  2
AcDbTableStyle
  3
ObjectDBX Classes
 90
     4095
 91
        1
280
     0
281
     0
  0
CLASS
  1
MATERIAL
  2
AcDbMaterial
  3
ObjectDBX Classes
 90
     1153
 91
        3
280
     0
281
     0
  0
CLASS
  1
VISUALSTYLE
  2
AcDbVisualStyle
  3
ObjectDBX Classes
 90
     4095
 91
       26
280
     0
281
     0
  0
CLASS
  1
SCALE
  2
AcDbScale
  3
ObjectDBX Classes
 90
     1153
 91
        8
280
     0
281
     0
  0
CLASS
  1
MLEADERSTYLE
  2
AcDbMLeaderStyle
  3
ACDB_MLEADERSTYLE_CLASS
 90
     4095
 91
        7
280
     0
281
     0
  0
CLASS
  1
CELLSTYLEMAP
  2
AcDbCellStyleMap
  3
ObjectDBX Classes
 90
     1152
 91
        1
280
     0
281
     0
  0
CLASS
  1
SORTENTSTABLE
  2
AcDbSortentsTable
  3
ObjectDBX Classes
 90
        0
 91
       24
280
     0
281
     0
  0
CLASS
  1
DIMASSOC
  2
AcDbDimAssoc
  3
"AcDbDimAssoc|Product Desc:     AcDim ARX App For Dimension|Company:          Autodesk, Inc.|WEB Address:      www.autodesk.com"
 90
        0
 91
       27
280
     0
281
     0
  0
CLASS
  1
ACDB_ALDIMOBJECTCONTEXTDATA_CLASS
  2
AcDbAlignedDimensionObjectContextData
  3
ObjectDBX Classes
 90
     1153
 91
       26
280
     0
281
     0
  0
CLASS
  1
BREAKDATA
  2
AcDbBreakData
  3
ObjectDBX Classes
 90
     1024
 91
        0
280
     0
281
     0
  0
CLASS
  1
RTEXT
  2
RText
  3
RText|AutoCAD Express Tool|expresstools@autodesk.com
 90
     3071
 91
        6
280
     0
281
     1
  0
CLASS
  1
ACDB_LEADEROBJECTCONTEXTDATA_CLASS
  2
AcDbLeaderObjectContextData
  3
ObjectDBX Classes
 90
     1153
 91
        0
280
     0
281
     0
  0
CLASS
  1
ACDB_MTEXTOBJECTCONTEXTDATA_CLASS
  2
AcDbMTextObjectContextData
  3
ObjectDBX Classes
 90
     1153
 91
       49
280
     0
281
     0
  0
CLASS
  1
MULTILEADER
  2
AcDbMLeader
  3
ACDB_MLEADER_CLASS
 90
     1025
 91
        3
280
     0
281
     1
  0
CLASS
  1
ACDB_MLEADEROBJECTCONTEXTDATA_CLASS
  2
AcDbMLeaderObjectContextData
  3
ObjectDBX Classes
 90
     1153
 91
        2
280
     0
281
     0
  0
CLASS
  1
AEC_REFEDIT_STATUS_TRACKER
  2
AecDbRefEditStatusTracker
  3
AecArchBase70|Product Desc: Autodesk Architectural Desktop 2007 |Company: Autodesk,Inc. |WEB Address: www.autodesk.com
 90
      129
 91
        0
280
     0
281
     0
  0
CLASS
  1
NPOCOLLECTION
  2
AcDbImpNonPersistentObjectsCollection
  3
ObjectDBX Classes
 90
     1153
 91
        0
280
     0
281
     0
  0
CLASS
  1
ACDB_BLKREFOBJECTCONTEXTDATA_CLASS
  2
AcDbBlkRefObjectContextData
  3
ObjectDBX Classes
 90
     1153
 91
        0
280
     0
281
     0
  0
CLASS
  1
ACDB_TEXTOBJECTCONTEXTDATA_CLASS
  2
AcDbTextObjectContextData
  3
ObjectDBX Classes
 90
     1153
 91
        0
280
     0
281
     0
  0
CLASS
  1
ACDBSECTIONVIEWSTYLE
  2
AcDbSectionViewStyle
  3
ObjectDBX Classes
 90
     1025
 91
        2
280
     0
281
     0
  0
CLASS
  1
ACDBDETAILVIEWSTYLE
  2
AcDbDetailViewStyle
  3
ObjectDBX Classes
 90
     1025
 91
        2
280
     0
281
     0
  0
CLASS
  1
ACAD_EVALUATION_GRAPH
  2
AcDbEvalGraph
  3
ObjectDBX Classes
 90
     1153
 91
        0
280
     0
281
     0
  0
CLASS
  1
ACAECUSTOBJ
  2
AcAeEditorObj
  3
AcAeEditorObj
 90
     1024
 91
        0
280
     0
281
     0
  0
CLASS
  1
FIELD
  2
AcDbField
  3
ObjectDBX Classes
 90
     1152
 91
      100
280
     0
281
     0
  0
CLASS
  1
ACDB_RADIMOBJECTCONTEXTDATA_CLASS
  2
AcDbRadialDimensionObjectContextData
  3
ObjectDBX Classes
 90
     1153
 91
        1
280
     0
281
     0
  0
CLASS
  1
ACDB_ANGDIMOBJECTCONTEXTDATA_CLASS
  2
AcDbAngularDimensionObjectContextData
  3
ObjectDBX Classes
 90
     1153
 91
        2
280
     0
281
     0
  0
CLASS
  1
ARC_DIMENSION
  2
AcDbArcDimension
  3
ObjectDBX Classes
 90
     1025
 91
        1
280
     0
281
     1
  0
CLASS
  1
FIELDLIST
  2
AcDbFieldList
  3
ObjectDBX Classes
 90
     1152
 91
        1
280
     0
281
     0
  0
CLASS
  1
RAPIDRTRENDERSETTINGS
  2
AcDbRapidRTRenderSettings
  3
ObjectDBX Classes
 90
     1024
 91
        6
280
     0
281
     0
  0
ENDSEC
  0
SECTION
  2
TABLES
  0
TABLE
  2
VPORT
  5
8
102
{ACAD_XDICTIONARY
360
618C
102
}
330
0
100
AcDbSymbolTable
 70
     1
  0
VPORT
  5
5E7
330
8
100
AcDbSymbolTableRecord
100
AcDbViewportTableRecord
  2
*Active
 70
     0
 10
0.0
 20
0.0
 11
1.0
 21
1.0
 12
249.987770723861
 22
331.3384997456172
 13
0.0
 23
0.0
 14
10.0
 24
10.0
 15
10.0
 25
10.0
 16
0.0
 26
0.0
 36
1.0
 17
0.0
 27
0.0
 37
0.0
 40
358.0590300589586
 41
2.347043701799485
 42
50.0
 43
0.0
 44
0.0
 50
0.0
 51
0.0
 71
     0
 72
   100
 73
     1
 74
     2
 75
     0
 76
     0
 77
     0
 78
     0
281
     0
 65
     1
110
0.0
120
0.0
130
0.0
111
1.0
121
0.0
131
0.0
112
0.0
122
1.0
132
0.0
 79
     0
146
0.0
348
607
 60
     3
 61
     5
292
     1
282
     1
141
0.0
142
0.0
 63
   250
421
  3355443
1001
ACAD_NAV_VCDISPLAY
1070
     3
  0
ENDTAB
  0
TABLE
  2
LTYPE
  5
5
330
0
100
AcDbSymbolTable
 70
     7
  0
LTYPE
  5
14
330
5
100
AcDbSymbolTableRecord
100
AcDbLinetypeTableRecord
  2
ByBlock
 70
     0
  3

 72
    65
 73
     0
 40
0.0
  0
LTYPE
  5
15
330
5
100
AcDbSymbolTableRecord
100
AcDbLinetypeTableRecord
  2
ByLayer
 70
     0
  3

 72
    65
 73
     0
 40
0.0
  0
LTYPE
  5
16
330
5
100
AcDbSymbolTableRecord
100
AcDbLinetypeTableRecord
  2
Continuous
 70
     0
  3
Solid line
 72
    65
 73
     0
 40
0.0
  0
ENDTAB
  0
TABLE
  2
LAYER
  5
2
102
{ACAD_XDICTIONARY
360
4F5
102
}
330
0
100
AcDbSymbolTable
 70
    51
  0
LAYER
  5
10
102
{ACAD_XDICTIONARY
360
4D20
102
}
330
2
100
AcDbSymbolTableRecord
100
AcDbLayerTableRecord
  2
0
 70
     0
 62
     7
  6
Continuous
370
    -3
390
F
347
5F9
  0
LAYER
  5
38D
102
{ACAD_XDICTIONARY
360
4D46
102
}
330
2
100
AcDbSymbolTableRecord
100
AcDbLayerTableRecord
  2
GM_Sichtbare
 70
     0
 62
     4
  6
Continuous
370
    -3
390
F
347
5F9
  0
LAYER
  5
390
102
{ACAD_XDICTIONARY
360
4D4C
102
}
330
2
100
AcDbSymbolTableRecord
100
AcDbLayerTableRecord
  2
GM_Text1
 70
     0
 62
     7
  6
Continuous
370
    -3
390
F
347
5F9
  0
LAYER
  5
5D41
102
{ACAD_XDICTIONARY
360
5F85
102
}
330
2
100
AcDbSymbolTableRecord
100
AcDbLayerTableRecord
  2
GM_Wand
 70
     0
 62
    40
  6
Continuous
370
    -3
390
F
347
5F9
  0
LAYER
  5
5EE3
102
{ACAD_XDICTIONARY
360
5FE9
102
}
330
2
100
AcDbSymbolTableRecord
100
AcDbLayerTableRecord
  2
GM_Stahl
 70
     0
 62
     3
  6
Continuous
370
    -3
390
F
347
5F9
  0
LAYER
  5
B139
102
{ACAD_XDICTIONARY
360
107EF
102
}
330
2
100
AcDbSymbolTableRecord
100
AcDbLayerTableRecord
  2
GM_Bemassung
 70
     0
 62
     7
  6
Continuous
370
    -3
390
F
347
5F9
  0
LAYER
  5
B17E
330
2
100
AcDbSymbolTableRecord
100
AcDbLayerTableRecord
  2
Defpoints
 70
     0
 62
     7
  6
Continuous
290
     0
370
    -3
390
F
347
5F9
  0
LAYER
  5
105BF
102
{ACAD_XDICTIONARY
360
105C0
102
}
330
2
100
AcDbSymbolTableRecord
100
AcDbLayerTableRecord
  2
GM_EPDM
 70
     0
 62
     5
  6
Continuous
370
    -3
390
F
347
5F9
1001
AcAecLayerStandard
1000

1000

  0
ENDTAB
  0
TABLE
  2
STYLE
  5
3
330
0
100
AcDbSymbolTable
 70
    16
  0
STYLE
  5
11
330
3
100
AcDbSymbolTableRecord
100
AcDbTextStyleTableRecord
  2
Standard
 70
     0
 40
3.5
 41
0.8
 50
0.0
 71
     0
 42
2.5
  3
arial.ttf
  4

1001
ACAD
1000
Arial
1071
       34
  0
STYLE
  5
4E30
330
3
100
AcDbSymbolTableRecord
100
AcDbTextStyleTableRecord
  2
Arial
 70
     0
 40
0.0
 41
0.8
 50
0.0
 71
     0
 42
5.0
  3
arial.ttf
  4

1001
AcadAnnotative
1000
AnnotativeData
1002
{
1070
     1
1070
     1
1002
}
1001
ACAD
1000
Arial
1071
       34
  0
ENDTAB
  0
TABLE
  2
VIEW
  5
6
330
0
100
AcDbSymbolTable
 70
     0
  0
ENDTAB
  0
TABLE
  2
UCS
  5
7
330
0
100
AcDbSymbolTable
 70
     0
  0
ENDTAB
  0
TABLE
  2
APPID
  5
9
330
0
100
AcDbSymbolTable
 70
    39
  0
APPID
  5
12
330
9
100
AcDbSymbolTableRecord
100
AcDbRegAppTableRecord
  2
ACAD
 70
     0
  0
APPID
  5
339
330
9
100
AcDbSymbolTableRecord
100
AcDbRegAppTableRecord
  2
DCO15
 70
     0
  0
APPID
  5
493
330
9
100
AcDbSymbolTableRecord
100
AcDbRegAppTableRecord
  2
ACAD_PSEXT
 70
     0
  0
APPID
  5
636
330
9
100
AcDbSymbolTableRecord
100
AcDbRegAppTableRecord
  2
ACAD_MLEADERVER
 70
     0
  0
APPID
  5
666
330
9
100
AcDbSymbolTableRecord
100
AcDbRegAppTableRecord
  2
AcAecLayerStandard
 70
     0
  0
APPID
  5
1F52
330
9
100
AcDbSymbolTableRecord
100
AcDbRegAppTableRecord
  2
AcDbDynamicBlockGUID
 70
     0
  0
APPID
  5
1F53
330
9
100
AcDbSymbolTableRecord
100
AcDbRegAppTableRecord
  2
AcDbBlockRepETag
 70
     0
  0
APPID
  5
1F54
330
9
100
AcDbSymbolTableRecord
100
AcDbRegAppTableRecord
  2
ACAUTHENVIRON
 70
     0
  0
APPID
  5
1F55
330
9
100
AcDbSymbolTableRecord
100
AcDbRegAppTableRecord
  2
AcDbDynamicBlockTrueName
 70
     0
  0
APPID
  5
1F56
330
9
100
AcDbSymbolTableRecord
100
AcDbRegAppTableRecord
  2
AcDbBlockRepBTag
 70
     0
  0
APPID
  5
1F57
330
9
100
AcDbSymbolTableRecord
100
AcDbRegAppTableRecord
  2
_APP0
 70
     0
  0
APPID
  5
1F58
330
9
100
AcDbSymbolTableRecord
100
AcDbRegAppTableRecord
  2
_APP1
 70
     0
  0
APPID
  5
1F59
330
9
100
AcDbSymbolTableRecord
100
AcDbRegAppTableRecord
  2
ACAD_DSTYLE_DIMEXT_LENGTH
 70
     0
  0
APPID
  5
1F5A
330
9
100
AcDbSymbolTableRecord
100
AcDbRegAppTableRecord
  2
ACAD_DSTYLE_DIMEXT_ENABLED
 70
     0
  0
APPID
  5
1F5B
330
9
100
AcDbSymbolTableRecord
100
AcDbRegAppTableRecord
  2
ACAD_DSTYLE_DIMJOGGED_JOGANGLE_SYMBOL
 70
     0
  0
APPID
  5
1F5C
330
9
100
AcDbSymbolTableRecord
100
AcDbRegAppTableRecord
  2
ACAD_DSTYLE_DIMARC_LENGTH_SYMBOL
 70
     0
  0
APPID
  5
389A
330
9
100
AcDbSymbolTableRecord
100
AcDbRegAppTableRecord
  2
RAK
 70
     0
  0
APPID
  5
3BB4
330
9
100
AcDbSymbolTableRecord
100
AcDbRegAppTableRecord
  2
ACAD_DSTYLE_DIMJAG
 70
     0
  0
APPID
  5
3BB5
330
9
100
AcDbSymbolTableRecord
100
AcDbRegAppTableRecord
  2
ACAD_DSTYLE_DIMBREAK
 70
     0
  0
APPID
  5
3BB6
330
9
100
AcDbSymbolTableRecord
100
AcDbRegAppTableRecord
  2
AcadAnnotative
 70
     0
  0
APPID
  5
3BB7
330
9
100
AcDbSymbolTableRecord
100
AcDbRegAppTableRecord
  2
ACAD_DSTYLE_DIMTALN
 70
     0
  0
APPID
  5
3BCD
330
9
100
AcDbSymbolTableRecord
100
AcDbRegAppTableRecord
  2
ACAD_DSTYLE_DIMJAG_POSITION
 70
     0
  0
APPID
  5
3DF7
330
9
100
AcDbSymbolTableRecord
100
AcDbRegAppTableRecord
  2
AMD_INELCAD
 70
     0
  0
APPID
  5
4090
330
9
100
AcDbSymbolTableRecord
100
AcDbRegAppTableRecord
  2
AMD_MUCAD
 70
     0
  0
APPID
  5
4DCC
330
9
100
AcDbSymbolTableRecord
100
AcDbRegAppTableRecord
  2
AcadAnnotativeDecomposition
 70
     0
  0
APPID
  5
53DF
330
9
100
AcDbSymbolTableRecord
100
AcDbRegAppTableRecord
  2
AcDbAttr
 70
     0
  0
APPID
  5
5F71
330
9
100
AcDbSymbolTableRecord
100
AcDbRegAppTableRecord
  2
AcadAnnoPO
 70
     0
  0
APPID
  5
7008
330
9
100
AcDbSymbolTableRecord
100
AcDbRegAppTableRecord
  2
ACAD_DSTYLE_DIMTEXT_FILL
 70
     0
  0
APPID
  5
7009
330
9
100
AcDbSymbolTableRecord
100
AcDbRegAppTableRecord
  2
ACAD_DSTYLE_DIM_LINETYPE
 70
     0
  0
APPID
  5
700A
330
9
100
AcDbSymbolTableRecord
100
AcDbRegAppTableRecord
  2
ACAD_DSTYLE_DIM_EXT1_LINETYPE
 70
     0
  0
APPID
  5
700B
330
9
100
AcDbSymbolTableRecord
100
AcDbRegAppTableRecord
  2
ACAD_DSTYLE_DIM_EXT2_LINETYPE
 70
     0
  0
APPID
  5
942D
330
9
100
AcDbSymbolTableRecord
100
AcDbRegAppTableRecord
  2
AcadAnnoAV
 70
     0
  0
APPID
  5
987B
330
9
100
AcDbSymbolTableRecord
100
AcDbRegAppTableRecord
  2
ACAD_EXEMPT_FROM_CAD_STANDARDS
 70
     0
  0
APPID
  5
AB5E
330
9
100
AcDbSymbolTableRecord
100
AcDbRegAppTableRecord
  2
ACAD_NAV_VCDISPLAY
 70
     0
  0
APPID
  5
AC7E
330
9
100
AcDbSymbolTableRecord
100
AcDbRegAppTableRecord
  2
ATHENA
 70
     0
  0
APPID
  5
FA06
330
9
100
AcDbSymbolTableRecord
100
AcDbRegAppTableRecord
  2
AcCmTransparency
 70
     0
  0
APPID
  5
FA07
330
9
100
AcDbSymbolTableRecord
100
AcDbRegAppTableRecord
  2
GradientColor1ACI
 70
     0
  0
APPID
  5
FA08
330
9
100
AcDbSymbolTableRecord
100
AcDbRegAppTableRecord
  2
GradientColor2ACI
 70
     0
  0
APPID
  5
FA09
330
9
100
AcDbSymbolTableRecord
100
AcDbRegAppTableRecord
  2
ACAD_DSTYLE_DIMRADIAL_EXTENSION
 70
     0
  0
ENDTAB
  0
TABLE
  2
DIMSTYLE
  5
A
330
0
100
AcDbSymbolTable
 70
    30
100
AcDbDimStyleTable
 71
     1
340
825E
  0
DIMSTYLE
105
825E
102
{ACAD_REACTORS
330
10717
330
1071D
330
106E7
330
106ED
330
106F3
330
106F9
330
106FF
330
10705
330
1070B
330
10711
102
}
330
A
100
AcDbSymbolTableRecord
100
AcDbDimStyleTableRecord
  2
Bemaßung
 70
     0
 41
2.0
 42
5.0
 43
7.0
 44
2.0
 46
2.0
 73
     0
 74
     0
 77
     1
 78
     8
 79
     2
140
3.5
141
2.0
147
1.0
172
     1
174
     1
176
     7
177
     7
178
     7
179
     1
271
     0
272
     0
279
     2
340
11
1001
ACAD_DSTYLE_DIMBREAK
1070
   391
1040
3.5
1001
AcadAnnotative
1000
AnnotativeData
1002
{
1070
     1
1070
     1
1002
}
1001
ACAD_DSTYLE_DIMJAG
1070
   388
1040
1.0
1001
ACAD_DSTYLE_DIMTALN
1070
   392
1070
     0
  0
ENDTAB
  0
TABLE
  2
BLOCK_RECORD
  5
1
330
0
100
AcDbSymbolTable
 70
    81
  0
BLOCK_RECORD
  5
1F
102
{ACAD_XDICTIONARY
360
A4
102
}
330
1
100
AcDbSymbolTableRecord
100
AcDbBlockTableRecord
  2
*Model_Space
340
22
 70
     0
280
     1
281
     0
  0
BLOCK_RECORD
  5
107E5
330
1
100
AcDbSymbolTableRecord
100
AcDbBlockTableRecord
  2
*Paper_Space
340
107E6
 70
     0
280
     1
281
     0
  0
BLOCK_RECORD
  5
10541
330
1
100
AcDbSymbolTableRecord
100
AcDbBlockTableRecord
  2
Abdichtungsprofil
340
0
310
2800000020000000200000000100200000000000001000000100000001000000000000000000000000000000302821FF302821FF302821FF302821FF302821FF302821FF302821FF302821FF302821FF302821FF302821FF302821FF302821FF302821FF302821FF302821FF302821FF302821FF302821FF302821FF302821
310
FF302821FF302821FF302821FF302821FF302821FF302821FF302821FF302821FF302821FF302821FF302821FF302821FF302821FF302821FF302821FF302821FF302821FF302821FF302821FF302821FF302821FF302821FF302821FF302821FF302821FF302821FF302821FF302821FF302821FF302821FF302821FF3028
310
21FF302821FF302821FF302821FF302821FF302821FF302821FF302821FF302821FF302821FF302821FF302821FF302821FF302821FF302821FF302821FF302821FF302821FF302821FF302821FF302821FF302821FF302821FF302821FF302821FF302821FF302821FF302821FF302821FF302821FF302821FF302821FF30
310
2821FF302821FF302821FF302821FF302821FF302821FF302821FF302821FF302821FF302821FF302821FF302821FF302821FF302821FF302821FF302821FF302821FF302821FF302821FF302821FF302821FF302821FF302821FF302821FF302821FF302821FF302821FF302821FF302821FF302821FF302821FF302821FF
310
302821FF302821FF302821FF302821FF302821FF302821FF302821FF302821FF302821FF302821FF302821FF302821FF302821FF302821FF302821FF302821FF302821FF302821FF302821FF302821FF302821FF302821FF302821FF302821FF302821FF302821FF302821FF302821FF302821FF302821FF302821FF302821
310
FF302821FF302821FF302821FF302821FF302821FF302821FF302821FF302821FF302821FF302821FF302821FF302821FF302821FF302821FF302821FF302821FF302821FF302821FF302821FF302821FF302821FF302821FF302821FF302821FF302821FF302821FF302821FF302821FF302821FF302821FF302821FF3028
310
21FF302821FF302821FF302821FFFF0000FFFF0000FFFF0000FF302821FF302821FF302821FF302821FF302821FF302821FF302821FF302821FF302821FF302821FF302821FF302821FF302821FF302821FF302821FF302821FF302821FF302821FF302821FF302821FF302821FF302821FF302821FF302821FF302821FF30
310
2821FF302821FF302821FF302821FFFF0000FFFF0000FFFF0000FFFF0000FF302821FF302821FF302821FF302821FF302821FF302821FF302821FF302821FF302821FF302821FF302821FF302821FF302821FF302821FF302821FF302821FF302821FF302821FF302821FF302821FF302821FF302821FF302821FF302821FF
310
302821FF302821FF302821FFFF0000FFFF0000FF302821FFFF0000FFFF0000FFFF0000FF302821FF302821FF302821FF302821FF302821FF302821FF302821FF302821FF302821FF302821FF302821FF302821FF302821FF302821FFFF0000FFFF0000FFFF0000FFFF0000FF302821FF302821FF302821FF302821FF302821
310
FF302821FF302821FFFF0000FFFF0000FFFF0000FF302821FF302821FFFF0000FFFF0000FF302821FF302821FF302821FF302821FF302821FF302821FF302821FF302821FF302821FF302821FF302821FF302821FF302821FFFF0000FFFF0000FF302821FF302821FFFF0000FFFF0000FF302821FF302821FF302821FF3028
310
21FF302821FF302821FF302821FFFF0000FFFF0000FFFF0000FFFF0000FFFF0000FFFF0000FFFF0000FFFF0000FFFF0000FF302821FF302821FF302821FF302821FF302821FF302821FF302821FF302821FFFF0000FFFF0000FFFF0000FF302821FFFF0000FFFF0000FFFF0000FFFF0000FF302821FF302821FF302821FF30
310
2821FF302821FF302821FF302821FF302821FFFF0000FFFF0000FFFF0000FFFF0000FFFF0000FF302821FFFF0000FF302821FF302821FF302821FF302821FF302821FF302821FF302821FF302821FFFF0000FF302821FFFF0000FFFF0000FFFF0000FF302821FF302821FFFF0000FF302821FF302821FF302821FF302821FF
310
FF0000FFFF0000FFFF0000FFFF0000FFFF0000FFFF0000FF302821FF302821FFFF0000FFFF0000FFFF0000FF302821FF302821FF302821FF302821FF302821FF302821FF302821FF302821FFFF0000FF302821FFFF0000FFFF0000FF302821FFFF0000FFFF0000FF302821FFFF0000FFFF0000FFFF0000FFFF0000FFFF0000
310
FF302821FFFF0000FF302821FFFF0000FF302821FF302821FFFF0000FFFF0000FFFF0000FF302821FF302821FF302821FF302821FF302821FF302821FF302821FF302821FF302821FFFF0000FF302821FFFF0000FFFF0000FF302821FF302821FFFF0000FF302821FFFF0000FFFF0000FF302821FFFF0000FF302821FFFF00
310
00FF302821FF302821FFFF0000FFFF0000FFFF0000FFFF0000FF302821FF302821FF302821FF302821FF302821FF302821FF302821FF302821FF302821FF302821FF302821FFFF0000FF302821FFFF0000FF302821FF302821FF302821FF302821FFFF0000FFFF0000FF302821FFFF0000FF302821FF302821FFFF0000FF30
310
2821FFFF0000FFFF0000FFFF0000FF302821FF302821FF302821FF302821FF302821FF302821FF302821FF302821FF302821FF302821FF302821FF302821FF302821FF302821FFFF0000FFFF0000FF302821FF302821FF302821FF302821FF302821FFFF0000FF302821FFFF0000FF302821FFFF0000FF302821FFFF0000FF
310
FF0000FF302821FF302821FF302821FF302821FF302821FF302821FF302821FF302821FF302821FF302821FF302821FF302821FF302821FF302821FF302821FF302821FFFF0000FFFF0000FF302821FF302821FF302821FF302821FFFF0000FFFF0000FF302821FFFF0000FF302821FFFF0000FFFF0000FFFF0000FF302821
310
FF302821FF302821FF302821FF302821FF302821FF302821FF302821FF302821FF302821FF302821FF302821FF302821FF302821FF302821FF302821FF302821FF302821FFFF0000FFFF0000FF302821FF302821FF302821FFFF0000FF302821FFFF0000FF302821FFFF0000FFFF0000FFFF0000FF302821FF302821FF3028
310
21FF302821FF302821FF302821FF302821FF302821FF302821FF302821FF302821FF302821FF302821FF302821FF302821FF302821FF302821FF302821FF302821FFFF0000FFFF0000FF302821FF302821FFFF0000FFFF0000FF302821FFFF0000FFFF0000FFFF0000FFFF0000FF302821FF302821FF302821FF302821FF30
310
2821FF302821FF302821FF302821FF302821FF302821FF302821FF302821FF302821FF302821FF302821FF302821FF302821FF302821FF302821FF302821FF302821FF302821FF302821FF302821FFFF0000FF302821FFFF0000FFFF0000FFFF0000FF302821FF302821FF302821FF302821FF302821FF302821FF302821FF
310
302821FF302821FF302821FF302821FF302821FF302821FF302821FF302821FF302821FF302821FF302821FF302821FF302821FF302821FF302821FF302821FF302821FF302821FF302821FFFF0000FFFF0000FF302821FFFF0000FF302821FF302821FF302821FF302821FF302821FF302821FF302821FF302821FF302821
310
FF302821FF302821FF302821FF302821FF302821FF302821FF302821FF302821FF302821FF302821FF302821FF302821FF302821FF302821FF302821FF302821FF302821FF302821FF302821FFFF0000FF302821FFFF0000FF302821FF302821FF302821FF302821FF302821FF302821FF302821FF302821FF302821FF3028
310
21FF302821FF302821FF302821FF302821FF302821FF302821FF302821FF302821FF302821FF302821FF302821FF302821FF302821FF302821FF302821FF302821FF302821FF302821FFFF0000FF302821FFFF0000FF302821FF302821FF302821FF302821FF302821FF302821FF302821FF302821FF302821FF302821FF30
310
2821FF302821FF302821FF302821FF302821FF302821FF302821FF302821FF302821FF302821FF302821FF302821FF302821FF302821FF302821FF302821FF302821FF302821FF302821FFFF0000FFFF0000FF302821FF302821FF302821FF302821FF302821FF302821FF302821FF302821FF302821FF302821FF302821FF
310
302821FF302821FF302821FF302821FF302821FF302821FF302821FF302821FF302821FF302821FF302821FF302821FF302821FF302821FF302821FF302821FF302821FF302821FF302821FFFF0000FFFF0000FF302821FF302821FF302821FF302821FF302821FF302821FF302821FF302821FF302821FF302821FF302821
310
FF302821FF302821FF302821FF302821FF302821FF302821FF302821FF302821FF302821FF302821FF302821FF302821FF302821FF302821FF302821FF302821FF302821FF302821FFFF0000FFFF0000FFFF0000FF302821FF302821FF302821FF302821FF302821FF302821FF302821FF302821FF302821FF302821FF3028
310
21FF302821FF302821FF302821FF302821FF302821FF302821FF302821FF302821FF302821FF302821FF302821FF302821FF302821FF302821FF302821FF302821FF302821FF302821FFFF0000FFFF0000FF302821FF302821FF302821FF302821FF302821FF302821FF302821FF302821FF302821FF302821FF302821FF30
310
2821FF302821FF302821FF302821FF302821FF302821FF302821FF302821FF302821FF302821FF302821FF302821FF302821FF302821FF302821FF302821FF302821FF302821FF302821FF302821FF302821FF302821FF302821FF302821FF302821FF302821FF302821FF302821FF302821FF302821FF302821FF302821FF
310
302821FF302821FF302821FF302821FF302821FF302821FF302821FF302821FF302821FF302821FF302821FF302821FF302821FF302821FF302821FF302821FF302821FF302821FF302821FF302821FF302821FF302821FF302821FF302821FF302821FF302821FF302821FF302821FF302821FF302821FF302821FF302821
310
FF302821FF302821FF302821FF302821FF302821FF302821FF302821FF302821FF302821FF302821FF302821FF302821FF302821FF302821FF302821FF302821FF302821FF302821FF302821FF302821FF302821FF302821FF302821FF302821FF302821FF302821FF302821FF302821FF302821FF302821FF302821FF3028
310
21FF302821FF302821FF302821FF302821FF302821FF302821FF302821FF302821FF302821FF302821FF302821FF302821FF302821FF302821FF302821FF302821FF302821FF302821FF302821FF302821FF302821FF302821FF302821FF302821FF302821FF302821FF302821FF302821FF302821FF302821FF302821FF30
310
2821FF302821FF302821FF302821FF302821FF302821FF302821FF302821FF302821FF302821FF302821FF302821FF302821FF302821FF302821FF302821FF302821FF302821FF302821FF302821FF302821FF302821FF302821FF302821FF302821FF302821FF302821FF302821FF302821FF302821FF302821FF302821FF
310
302821FF302821FF302821FF302821FF302821FF302821FF302821FF302821FF302821FF302821FF302821FF302821FF302821FF302821FF302821FF302821FF302821FF302821FF
102
{BLKREFS
331
106E4
102
}
 70
     4
280
     1
281
     0
  0
BLOCK_RECORD
  5
1073C
330
1
100
AcDbSymbolTableRecord
100
AcDbBlockTableRecord
  2
*D70
340
0
 70
     0
280
     1
281
     0
  0
BLOCK_RECORD
  5
10748
330
1
100
AcDbSymbolTableRecord
100
AcDbBlockTableRecord
  2
*D71
340
0
 70
     0
280
     1
281
     0
  0
BLOCK_RECORD
  5
10754
330
1
100
AcDbSymbolTableRecord
100
AcDbBlockTableRecord
  2
*D72
340
0
 70
     0
280
     1
281
     0
  0
BLOCK_RECORD
  5
10760
330
1
100
AcDbSymbolTableRecord
100
AcDbBlockTableRecord
  2
*D73
340
0
 70
     0
280
     1
281
     0
  0
BLOCK_RECORD
  5
1076C
330
1
100
AcDbSymbolTableRecord
100
AcDbBlockTableRecord
  2
*D74
340
0
 70
     0
280
     1
281
     0
  0
BLOCK_RECORD
  5
10778
330
1
100
AcDbSymbolTableRecord
100
AcDbBlockTableRecord
  2
*D75
340
0
 70
     0
280
     1
281
     0
  0
BLOCK_RECORD
  5
10784
330
1
100
AcDbSymbolTableRecord
100
AcDbBlockTableRecord
  2
*D76
340
0
 70
     0
280
     1
281
     0
  0
BLOCK_RECORD
  5
10790
330
1
100
AcDbSymbolTableRecord
100
AcDbBlockTableRecord
  2
*D77
340
0
 70
     0
280
     1
281
     0
  0
BLOCK_RECORD
  5
1079C
330
1
100
AcDbSymbolTableRecord
100
AcDbBlockTableRecord
  2
*D78
340
0
 70
     0
280
     1
281
     0
  0
BLOCK_RECORD
  5
107A8
330
1
100
AcDbSymbolTableRecord
100
AcDbBlockTableRecord
  2
*D79
340
0
 70
     0
280
     1
281
     0
  0
ENDTAB
  0
ENDSEC
  0
SECTION
  2
BLOCKS
  0
BLOCK
  5
20
330
1F
100
AcDbEntity
  8
0
100
AcDbBlockBegin
  2
*Model_Space
 70
     0
 10
0.0
 20
0.0
 30
0.0
  3
*Model_Space
  1

  0
ENDBLK
  5
21
330
1F
100
AcDbEntity
  8
0
100
AcDbBlockEnd
  0
BLOCK
  5
107E7
330
107E5
100
AcDbEntity
 67
     1
  8
0
100
AcDbBlockBegin
  2
*Paper_Space
 70
     0
 10
0.0
 20
0.0
 30
0.0
  3
*Paper_Space
  1

  0
ENDBLK
  5
107E8
330
107E5
100
AcDbEntity
 67
     1
  8
0
100
AcDbBlockEnd
  0
BLOCK
  5
10542
330
10541
100
AcDbEntity
  8
0
100
AcDbBlockBegin
  2
Abdichtungsprofil
 70
     0
 10
0.0
 20
0.0
 30
0.0
  3
Abdichtungsprofil
  1

  0
HATCH
  5
10543
330
10541
100
AcDbEntity
  8
GM_EPDM
100
AcDbHatch
 10
0.0
 20
0.0
 30
0.0
210
0.0
220
0.0
230
1.0
  2
ANSI31
 70
     0
 71
     1
 91
        2
 92
        7
 72
     1
 73
     1
 93
       43
 10
-12.63208370303399
 20
7.328451032177923
 42
-0.1136737747886925
 10
-17.49915395577669
 20
10.06231107634315
 42
-0.1573380128660677
 10
-20.16169718694518
 20
14.63786196138189
 42
0.9163311740019398
 10
-20.94244033602043
 20
14.47792879987417
 42
0.1936374421010195
 10
-18.18368415695737
 20
8.675188054660168
 42
0.078439304536647
 10
-13.43991176710909
 20
5.354655956805796
 42
-0.2289392072676405
 10
-13.06068752346715
 20
4.571489820270783
 42
0.0
 10
-13.05953020360118
 20
1.756679204692999
 42
-0.6212334434985763
 10
-13.47800317189902
 20
1.418733416601333
 42
-0.2113182715626852
 10
-20.18311786521543
 20
7.750867938668871
 42
0.9504382399583041
 10
-20.9331831843484
 20
7.47563864463526
 42
0.2060375975233718
 10
-14.92304646373465
 20
0.4531964938322304
 42
-0.0601673788258161
 10
-12.671173359051
 20
-0.9973713689859096
 42
0.3327040116127361
 10
-11.47448919077813
 20
-1.057352617554937
 42
0.0
 10
-9.875109308586404
 20
0.0188272873785138
 42
0.6767920674255964
 10
-9.992014058534367
 20
0.5634336122057247
 42
0.0
 10
-10.43281722462961
 20
0.6388220624485248
 42
-0.3730349880879645
 10
-10.60439198390855
 20
0.8367917714704699
 42
0.0
 10
-10.60439198390486
 20
2.518223964836579
 42
0.0
 10
-10.60439198390304
 20
2.625986665243677
 42
-0.5600269084743088
 10
-10.31359388394979
 20
2.80418797007773
 42
0.0
 10
-9.974179142780485
 20
2.631247521510886
 42
0.0
 10
-2.409607476272866
 20
1.023348177559455
 42
0.0
 10
-2.029195463476572
 20
1.043284726368936
 42
-0.4931454260363671
 10
-1.823098752076093
 20
0.8019764812524737
 42
0.0
 10
-2.140647433354083
 20
-0.6919726059135672
 42
-0.3394542588635138
 10
-2.233228597802852
 20
-0.7710443903069466
 42
0.0
 10
-2.598725731349755
 20
-0.7901992834102947
 42
0.5690823908544883
 10
-2.838614965715179
 20
-1.246866917209153
 42
0.0
 10
-1.482741520833059
 20
-3.453070308890931
 42
0.2053898014404374
 10
-0.831646720676872
 20
-3.912590411988276
 42
0.2053898014399837
 10
-0.0499383593403771
 20
-3.757622022446001
 42
0.0
 10
2.086057428839421
 20
-2.293638348745278
 42
0.5690823908522562
 10
2.052651168821215
 20
-1.778879964340804
 42
0.0
 10
1.726543919605955
 20
-1.612720021599067
 42
-0.3394542588619067
 10
1.674128209507006
 20
-1.502828200098866
 42
0.0
 10
1.991676890784434
 20
-0.008879112931842
 42
-0.4931454260374901
 10
2.278104510885007
 20
0.1277398537417893
 42
0.0
 10
2.617519252269627
 20
-0.0452005949355217
 42
0.0
 10
4.310484062379156
 20
-0.4050513739964936
 42
0.7002075382096193
 10
4.50966855126494
 20
-0.0862895587815595
 42
0.0
 10
3.893443753172011
 20
0.7024422150838437
 42
0.150515728104743
 10
3.410485974512198
 20
1.039116123157995
 42
-0.0369634547244595
 97
        1
330
10545
 92
       22
 72
     1
 73
     1
 93
        4
 10
0.869641335262461
 20
-0.1848479721077707
 42
0.0
 10
0.4330267845492131
 20
-2.23895793364911
 42
-1.0
 10
-1.306255885976405
 20
-1.869261989433219
 42
0.0
 10
-0.8696413352623943
 20
0.1848479721080833
 42
-1.0
 97
        1
330
10544
 75
     1
 76
     1
 52
0.0
 41
0.5
 77
     0
 78
     1
 53
45.0
 43
-492.8271558446076
 44
-269.589227705918
 45
-1.122532015133644
 46
1.122532015133644
 79
     0
 47
0.0448148919299362
 98
        2
 10
-8.336545678128459
 20
4.233490801643597
 10
-8.336545678128459
 20
4.233490801643597
1001
GradientColor1ACI
1070
     5
1001
GradientColor2ACI
1070
     2
1001
ACAD
1010
0.0
1020
0.0
1030
0.0
  0
LWPOLYLINE
  5
10544
102
{ACAD_REACTORS
330
10543
102
}
330
10541
100
AcDbEntity
  8
GM_EPDM
100
AcDbPolyline
 90
        4
 70
     1
 43
0.0
 10
-0.8696413352627132
 20
0.1848479721065814
 42
-0.9999999999999998
 10
0.8696413352627132
 20
-0.1848479721065814
 10
0.4330267845489289
 20
-2.238957933650453
 42
-0.9999999999990903
 10
-1.306255885976497
 20
-1.869261989433653
  0
LWPOLYLINE
  5
10545
102
{ACAD_REACTORS
330
10543
102
}
330
10541
100
AcDbEntity
  8
GM_EPDM
100
AcDbPolyline
 90
       44
 70
     0
 43
0.0
 10
-13.4780031718995
 20
1.418733416601526
 42
0.6212334434992436
 10
-13.05953020360118
 20
1.756679204693
 10
-13.06068718537244
 20
4.570667512962245
 42
0.2291555692364584
 10
-13.43991176710909
 20
5.3546559568058
 42
-0.0784393045366481
 10
-18.18368415695744
 20
8.675188054660225
 42
-0.1936374421010376
 10
-20.94244033602047
 20
14.47792879987486
 42
-0.9163311740007728
 10
-20.16169718694516
 20
14.63786196138181
 42
0.1573380128660742
 10
-17.49915395577648
 20
10.06231107634295
 42
0.1136737747886845
 10
-12.63208370303408
 20
7.328451032177952
 42
0.036963454724339
 10
3.410485974458424
 20
1.039116123174608
 42
-0.1505157281189129
 10
3.893443753171595
 20
0.7024422150843748
 10
4.50966855126353
 20
-0.0862895587797539
 42
-0.7002075382121764
 10
4.310484062380055
 20
-0.4050513739966846
 10
2.61751925226963
 20
-0.0452005949355225
 10
2.278104510880439
 20
0.1277398537441172
 42
0.4931454260311198
 10
1.991676890784219
 20
-0.0088791129328456
 10
1.674128209506307
 20
-1.502828200102158
 42
0.3394542588562275
 10
1.726543919607138
 20
-1.61272002159967
 10
2.052651168820375
 20
-1.778879964340376
 42
-0.5690823908526256
 10
2.086057428839922
 20
-2.293638348744934
 10
-0.0499383593396488
 20
-3.757622022445502
 42
-0.2053898014402112
 10
-0.831646720676872
 20
-3.912590411988276
 42
-0.2053898014403394
 10
-1.48274152083286
 20
-3.453070308891255
 10
-2.838614965714441
 20
-1.246866917210354
 42
-0.5690823908537785
 10
-2.598725731351805
 20
-0.7901992834104022
 10
-2.233228597802735
 20
-0.7710443903069404
 42
0.339454258859109
 10
-2.140647433354388
 20
-0.691972605914998
 10
-1.823098752076475
 20
0.8019764812506764
 42
0.4931454260324289
 10
-2.029195463472206
 20
1.043284726369165
 10
-2.409607476272867
 20
1.023348177559455
 10
-9.974179142780485
 20
2.631247521510886
 10
-10.31359388395685
 20
2.804187970081329
 42
0.56002690847047
 10
-10.60439198390304
 20
2.625986665238087
 10
-10.60439198390486
 20
2.518223964836579
 10
-10.60439198390855
 20
0.8367917714695067
 42
0.3730349880865849
 10
-10.43281722462961
 20
0.6388220624485257
 10
-9.99201405853455
 20
0.5634336122057562
 42
-0.6767920674261321
 10
-9.875109308586615
 20
0.0188272873783717
 10
-11.47448919077942
 20
-1.057352617555807
 42
-0.332704011526836
 10
-12.67117335881408
 20
-0.9973713691824173
 42
0.0601673788327251
 10
-14.92304646373446
 20
0.453196493832138
 42
-0.2060375975227125
 10
-20.93318318433956
 20
7.475638644606817
 42
-0.9550514128256574
 10
-20.18161953338
 20
7.747300801698656
 42
0.2125289779794288
 10
-13.42451271260171
 20
1.399944098298306
  0
ENDBLK
  5
10546
330
10541
100
AcDbEntity
  8
0
100
AcDbBlockEnd
  0
BLOCK
  5
1073D
330
1073C
100
AcDbEntity
  8
0
100
AcDbBlockBegin
  2
*D70
 70
     1
 10
0.0
 20
0.0
 30
0.0
  3
*D70
  1

  0
LINE
  5
107B4
330
1073C
100
AcDbEntity
  8
GM_Bemassung
 62
     7
440
 16777216
370
    -2
100
AcDbLine
 10
313.6411158027936
 20
170.4870913800944
 30
0.0
 11
313.6411158027936
 21
156.4703320724593
 31
0.0
  0
LINE
  5
107B5
330
1073C
100
AcDbEntity
  8
GM_Bemassung
 62
     7
440
 16777216
370
    -2
100
AcDbLine
 10
399.4411158027929
 20
171.3370913800959
 30
0.0
 11
399.4411158027929
 21
156.4703320724593
 31
0.0
  0
LINE
  5
107B6
330
1073C
100
AcDbEntity
  8
GM_Bemassung
 62
     7
440
 16777216
370
    -2
100
AcDbLine
 10
317.6411158027936
 20
160.4703320724593
 30
0.0
 11
395.4411158027929
 21
160.4703320724593
 31
0.0
  0
SOLID
  5
107B7
330
1073C
100
AcDbEntity
  8
GM_Bemassung
 62
     7
440
 16777216
100
AcDbTrace
 10
317.6411158027936
 20
161.1369987391259
 30
0.0
 11
317.6411158027936
 21
159.8036654057926
 31
0.0
 12
313.6411158027936
 22
160.4703320724593
 32
0.0
 13
313.6411158027936
 23
160.4703320724593
 33
0.0
  0
SOLID
  5
107B8
330
1073C
100
AcDbEntity
  8
GM_Bemassung
 62
     7
440
 16777216
100
AcDbTrace
 10
395.4411158027929
 20
161.1369987391259
 30
0.0
 11
395.4411158027929
 21
159.8036654057926
 31
0.0
 12
399.4411158027929
 22
160.4703320724593
 32
0.0
 13
399.4411158027929
 23
160.4703320724593
 33
0.0
  0
MTEXT
  5
107B9
330
1073C
100
AcDbEntity
  8
GM_Bemassung
 62
     7
440
 16777216
100
AcDbMText
 10
356.5411158027932
 20
166.0443429865111
 30
0.0
 40
7.0
 41
0.0
 46
0.0
 71
     5
 72
     1
  1
\A1;86
 73
     1
 44
1.0
  0
POINT
  5
107BA
330
1073C
100
AcDbEntity
  8
Defpoints
 62
     0
440
 16777216
100
AcDbPoint
 10
313.6411158027936
 20
180.4870913800944
 30
0.0
  0
POINT
  5
107BB
330
1073C
100
AcDbEntity
  8
Defpoints
 62
     0
440
 16777216
100
AcDbPoint
 10
399.4411158027929
 20
181.3370913800959
 30
0.0
  0
POINT
  5
107BC
330
1073C
100
AcDbEntity
  8
Defpoints
 62
     0
440
 16777216
100
AcDbPoint
 10
399.4411158027929
 20
160.4703320724593
 30
0.0
  0
ENDBLK
  5
1073E
330
1073C
100
AcDbEntity
  8
0
100
AcDbBlockEnd
  0
BLOCK
  5
10749
330
10748
100
AcDbEntity
  8
0
100
AcDbBlockBegin
  2
*D71
 70
     1
 10
0.0
 20
0.0
 30
0.0
  3
*D71
  1

  0
LINE
  5
107BD
330
10748
100
AcDbEntity
  8
GM_Bemassung
 62
     7
440
 16777216
370
    -2
100
AcDbLine
 10
303.9411158027932
 20
180.1870913800947
 30
0.0
 11
283.5620577440445
 21
180.1870913800947
 31
0.0
  0
LINE
  5
107BE
330
10748
100
AcDbEntity
  8
GM_Bemassung
 62
     7
440
 16777216
370
    -2
100
AcDbLine
 10
303.6411158027939
 20
293.8321726655608
 30
0.0
 11
283.5620577440445
 21
293.8321726655608
 31
0.0
  0
LINE
  5
107BF
330
10748
100
AcDbEntity
  8
GM_Bemassung
 62
     7
440
 16777216
370
    -2
100
AcDbLine
 10
287.5620577440445
 20
184.1870913800947
 30
0.0
 11
287.5620577440445
 21
289.8321726655608
 31
0.0
  0
SOLID
  5
107C0
330
10748
100
AcDbEntity
  8
GM_Bemassung
 62
     7
440
 16777216
100
AcDbTrace
 10
286.8953910773779
 20
184.1870913800947
 30
0.0
 11
288.2287244107112
 21
184.1870913800947
 31
0.0
 12
287.5620577440445
 22
180.1870913800947
 32
0.0
 13
287.5620577440445
 23
180.1870913800947
 33
0.0
  0
SOLID
  5
107C1
330
10748
100
AcDbEntity
  8
GM_Bemassung
 62
     7
440
 16777216
100
AcDbTrace
 10
286.8953910773779
 20
289.8321726655608
 30
0.0
 11
288.2287244107112
 21
289.8321726655608
 31
0.0
 12
287.5620577440445
 22
293.8321726655608
 32
0.0
 13
287.5620577440445
 23
293.8321726655608
 33
0.0
  0
MTEXT
  5
107C2
330
10748
100
AcDbEntity
  8
GM_Bemassung
 62
     7
440
 16777216
100
AcDbMText
 10
282.0477330510022
 20
237.0096320228276
 30
0.0
 40
7.0
 41
0.0
 46
0.0
 71
     5
 72
     1
  1
\A1;114
 11
0.0000000000000001
 21
1.0
 31
0.0
 73
     1
 44
1.0
  0
POINT
  5
107C3
330
10748
100
AcDbEntity
  8
Defpoints
 62
     0
440
 16777216
100
AcDbPoint
 10
313.9411158027932
 20
180.1870913800947
 30
0.0
  0
POINT
  5
107C4
330
10748
100
AcDbEntity
  8
Defpoints
 62
     0
440
 16777216
100
AcDbPoint
 10
313.6411158027939
 20
293.8321726655608
 30
0.0
  0
POINT
  5
107C5
330
10748
100
AcDbEntity
  8
Defpoints
 62
     0
440
 16777216
100
AcDbPoint
 10
287.5620577440445
 20
293.8321726655608
 30
0.0
  0
ENDBLK
  5
1074A
330
10748
100
AcDbEntity
  8
0
100
AcDbBlockEnd
  0
BLOCK
  5
10755
330
10754
100
AcDbEntity
  8
0
100
AcDbBlockBegin
  2
*D72
 70
     1
 10
0.0
 20
0.0
 30
0.0
  3
*D72
  1

  0
LINE
  5
107CF
330
10754
100
AcDbEntity
  8
GM_Bemassung
 62
     7
440
 16777216
370
    -2
100
AcDbLine
 10
150.0613750962006
 20
441.3086524485354
 30
0.0
 11
150.0613750962006
 21
467.3454632257169
 31
0.0
  0
LINE
  5
107D0
330
10754
100
AcDbEntity
  8
GM_Bemassung
 62
     7
440
 16777216
370
    -2
100
AcDbLine
 10
175.4616592119523
 20
456.1201788521688
 30
0.0
 11
175.4616592119523
 21
467.3454632257169
 31
0.0
  0
LINE
  5
107D1
330
10754
100
AcDbEntity
  8
GM_Bemassung
 62
     7
440
 16777216
370
    -2
100
AcDbLine
 10
154.0613750962006
 20
463.3454632257169
 30
0.0
 11
171.4616592119523
 21
463.3454632257169
 31
0.0
  0
SOLID
  5
107D2
330
10754
100
AcDbEntity
  8
GM_Bemassung
 62
     7
440
 16777216
100
AcDbTrace
 10
154.0613750962006
 20
464.0121298923836
 30
0.0
 11
154.0613750962006
 21
462.6787965590502
 31
0.0
 12
150.0613750962006
 22
463.3454632257169
 32
0.0
 13
150.0613750962006
 23
463.3454632257169
 33
0.0
  0
SOLID
  5
107D3
330
10754
100
AcDbEntity
  8
GM_Bemassung
 62
     7
440
 16777216
100
AcDbTrace
 10
171.4616592119523
 20
464.0121298923836
 30
0.0
 11
171.4616592119523
 21
462.6787965590502
 31
0.0
 12
175.4616592119523
 22
463.3454632257169
 32
0.0
 13
175.4616592119523
 23
463.3454632257169
 33
0.0
  0
MTEXT
  5
107D4
330
10754
100
AcDbEntity
  8
GM_Bemassung
 62
     7
440
 16777216
100
AcDbMText
 10
162.7615171540764
 20
468.9194741397687
 30
0.0
 40
7.0
 41
0.0
 46
0.0
 71
     5
 72
     1
  1
\A1;25
 73
     1
 44
1.0
  0
POINT
  5
107D5
330
10754
100
AcDbEntity
  8
Defpoints
 62
     0
440
 16777216
100
AcDbPoint
 10
150.0613750962006
 20
431.3086524485354
 30
0.0
  0
POINT
  5
107D6
330
10754
100
AcDbEntity
  8
Defpoints
 62
     0
440
 16777216
100
AcDbPoint
 10
175.4616592119523
 20
446.1201788521688
 30
0.0
  0
POINT
  5
107D7
330
10754
100
AcDbEntity
  8
Defpoints
 62
     0
440
 16777216
100
AcDbPoint
 10
175.4616592119523
 20
463.3454632257169
 30
0.0
  0
ENDBLK
  5
10756
330
10754
100
AcDbEntity
  8
0
100
AcDbBlockEnd
  0
BLOCK
  5
10761
330
10760
100
AcDbEntity
  8
0
100
AcDbBlockBegin
  2
*D73
 70
     1
 10
0.0
 20
0.0
 30
0.0
  3
*D73
  1

  0
LINE
  5
107D8
330
10760
100
AcDbEntity
  8
GM_Bemassung
 62
     7
440
 16777216
370
    -2
100
AcDbLine
 10
165.1156693485631
 20
446.3186840509689
 30
0.0
 11
127.5790373365689
 21
446.3186840509688
 31
0.0
  0
LINE
  5
107D9
330
10760
100
AcDbEntity
  8
GM_Bemassung
 62
     7
440
 16777216
370
    -2
100
AcDbLine
 10
145.4026903681423
 20
427.4823515953289
 30
0.0
 11
127.5790373365689
 21
427.4823515953289
 31
0.0
  0
LINE
  5
107DA
330
10760
100
AcDbEntity
  8
GM_Bemassung
 62
     7
440
 16777216
370
    -2
100
AcDbLine
 10
131.5790373365689
 20
442.3186840509689
 30
0.0
 11
131.5790373365689
 21
431.4823515953289
 31
0.0
  0
SOLID
  5
107DB
330
10760
100
AcDbEntity
  8
GM_Bemassung
 62
     7
440
 16777216
100
AcDbTrace
 10
130.9123706699022
 20
442.3186840509689
 30
0.0
 11
132.2457040032356
 21
442.3186840509689
 31
0.0
 12
131.5790373365689
 22
446.3186840509689
 32
0.0
 13
131.5790373365689
 23
446.3186840509689
 33
0.0
  0
SOLID
  5
107DC
330
10760
100
AcDbEntity
  8
GM_Bemassung
 62
     7
440
 16777216
100
AcDbTrace
 10
130.9123706699022
 20
431.4823515953289
 30
0.0
 11
132.2457040032356
 21
431.4823515953289
 31
0.0
 12
131.5790373365689
 22
427.4823515953289
 32
0.0
 13
131.5790373365689
 23
427.4823515953289
 33
0.0
  0
MTEXT
  5
107DD
330
10760
100
AcDbEntity
  8
GM_Bemassung
 62
     7
440
 16777216
100
AcDbMText
 10
126.0050264225171
 20
436.9005178231487
 30
0.0
 40
7.0
 41
0.0
 46
0.0
 71
     5
 72
     1
  1
\A1;19
 11
0.0000000000000001
 21
1.0
 31
0.0
 73
     1
 44
1.0
  0
POINT
  5
107DE
330
10760
100
AcDbEntity
  8
Defpoints
 62
     0
440
 16777216
100
AcDbPoint
 10
175.1156693485631
 20
446.3186840509689
 30
0.0
  0
POINT
  5
107DF
330
10760
100
AcDbEntity
  8
Defpoints
 62
     0
440
 16777216
100
AcDbPoint
 10
155.4026903681423
 20
427.4823515953289
 30
0.0
  0
POINT
  5
107E0
330
10760
100
AcDbEntity
  8
Defpoints
 62
     0
440
 16777216
100
AcDbPoint
 10
131.5790373365689
 20
427.4823515953289
 30
0.0
  0
ENDBLK
  5
10762
330
10760
100
AcDbEntity
  8
0
100
AcDbBlockEnd
  0
BLOCK
  5
1076D
330
1076C
100
AcDbEntity
  8
0
100
AcDbBlockBegin
  2
*D74
 70
     1
 10
0.0
 20
0.0
 30
0.0
  3
*D74
  1

  0
LINE
  5
1076F
330
1076C
100
AcDbEntity
  8
GM_Bemassung
 62
     7
440
 16777216
370
    -2
100
AcDbLine
 10
279.920562438745
 20
468.2115089111642
 30
0.0
 11
279.920562438745
 21
483.7573653098688
 31
0.0
  0
LINE
  5
10770
330
1076C
100
AcDbEntity
  8
GM_Bemassung
 62
     7
440
 16777216
370
    -2
100
AcDbLine
 10
240.6777976237722
 20
468.2115089111642
 30
0.0
 11
240.6777976237722
 21
483.7573653098688
 31
0.0
  0
LINE
  5
10771
330
1076C
100
AcDbEntity
  8
GM_Bemassung
 62
     7
440
 16777216
370
    -2
100
AcDbLine
 10
275.920562438745
 20
479.7573653098688
 30
0.0
 11
244.6777976237722
 21
479.7573653098688
 31
0.0
  0
SOLID
  5
10772
330
1076C
100
AcDbEntity
  8
GM_Bemassung
 62
     7
440
 16777216
100
AcDbTrace
 10
275.920562438745
 20
480.4240319765355
 30
0.0
 11
275.920562438745
 21
479.0906986432021
 31
0.0
 12
279.920562438745
 22
479.7573653098688
 32
0.0
 13
279.920562438745
 23
479.7573653098688
 33
0.0
  0
SOLID
  5
10773
330
1076C
100
AcDbEntity
  8
GM_Bemassung
 62
     7
440
 16777216
100
AcDbTrace
 10
244.6777976237722
 20
480.4240319765355
 30
0.0
 11
244.6777976237722
 21
479.0906986432021
 31
0.0
 12
240.6777976237722
 22
479.7573653098688
 32
0.0
 13
240.6777976237722
 23
479.7573653098688
 33
0.0
  0
MTEXT
  5
10774
330
1076C
100
AcDbEntity
  8
GM_Bemassung
 62
     7
440
 16777216
100
AcDbMText
 10
260.2991800312586
 20
485.333763672761
 30
0.0
 40
7.0
 41
0.0
 46
0.0
 71
     5
 72
     1
  1
\A1;39
 73
     1
 44
1.0
  0
POINT
  5
10775
330
1076C
100
AcDbEntity
  8
Defpoints
 62
     0
440
 16777216
100
AcDbPoint
 10
279.920562438745
 20
458.2115089111641
 30
0.0
  0
POINT
  5
10776
330
1076C
100
AcDbEntity
  8
Defpoints
 62
     0
440
 16777216
100
AcDbPoint
 10
240.6777976237722
 20
458.2115089111641
 30
0.0
  0
POINT
  5
10777
330
1076C
100
AcDbEntity
  8
Defpoints
 62
     0
440
 16777216
100
AcDbPoint
 10
240.6777976237722
 20
479.7573653098688
 30
0.0
  0
ENDBLK
  5
1076E
330
1076C
100
AcDbEntity
  8
0
100
AcDbBlockEnd
  0
BLOCK
  5
10779
330
10778
100
AcDbEntity
  8
0
100
AcDbBlockBegin
  2
*D75
 70
     1
 10
0.0
 20
0.0
 30
0.0
  3
*D75
  1

  0
LINE
  5
1077B
330
10778
100
AcDbEntity
  8
GM_Bemassung
 62
     7
440
 16777216
370
    -2
100
AcDbLine
 10
230.6777976237723
 20
458.2115089111644
 30
0.0
 11
211.3010516337637
 21
458.2115089111644
 31
0.0
  0
LINE
  5
1077C
330
10778
100
AcDbEntity
  8
GM_Bemassung
 62
     7
440
 16777216
370
    -2
100
AcDbLine
 10
230.6777976237719
 20
425.2056672369649
 30
0.0
 11
211.3010516337637
 21
425.2056672369649
 31
0.0
  0
LINE
  5
1077D
330
10778
100
AcDbEntity
  8
GM_Bemassung
 62
     7
440
 16777216
370
    -2
100
AcDbLine
 10
215.3010516337637
 20
454.2115089111644
 30
0.0
 11
215.3010516337637
 21
429.2056672369649
 31
0.0
  0
SOLID
  5
1077E
330
10778
100
AcDbEntity
  8
GM_Bemassung
 62
     7
440
 16777216
100
AcDbTrace
 10
214.634384967097
 20
454.2115089111644
 30
0.0
 11
215.9677183004303
 21
454.2115089111644
 31
0.0
 12
215.3010516337637
 22
458.2115089111644
 32
0.0
 13
215.3010516337637
 23
458.2115089111644
 33
0.0
  0
SOLID
  5
1077F
330
10778
100
AcDbEntity
  8
GM_Bemassung
 62
     7
440
 16777216
100
AcDbTrace
 10
214.634384967097
 20
429.2056672369649
 30
0.0
 11
215.9677183004304
 21
429.2056672369649
 31
0.0
 12
215.3010516337637
 22
425.2056672369649
 32
0.0
 13
215.3010516337637
 23
425.2056672369649
 33
0.0
  0
MTEXT
  5
10780
330
10778
100
AcDbEntity
  8
GM_Bemassung
 62
     7
440
 16777216
100
AcDbMText
 10
209.7246532708715
 20
441.7085880740645
 30
0.0
 40
7.0
 41
0.0
 46
0.0
 71
     5
 72
     1
  1
\A1;33
 11
0.0000000000000001
 21
1.0
 31
0.0
 73
     1
 44
1.0
  0
POINT
  5
10781
330
10778
100
AcDbEntity
  8
Defpoints
 62
     0
440
 16777216
100
AcDbPoint
 10
240.6777976237723
 20
458.2115089111644
 30
0.0
  0
POINT
  5
10782
330
10778
100
AcDbEntity
  8
Defpoints
 62
     0
440
 16777216
100
AcDbPoint
 10
240.6777976237719
 20
425.2056672369649
 30
0.0
  0
POINT
  5
10783
330
10778
100
AcDbEntity
  8
Defpoints
 62
     0
440
 16777216
100
AcDbPoint
 10
215.3010516337637
 20
425.2056672369649
 30
0.0
  0
ENDBLK
  5
1077A
330
10778
100
AcDbEntity
  8
0
100
AcDbBlockEnd
  0
BLOCK
  5
10785
330
10784
100
AcDbEntity
  8
0
100
AcDbBlockBegin
  2
*D76
 70
     1
 10
0.0
 20
0.0
 30
0.0
  3
*D76
  1

  0
LINE
  5
10787
330
10784
100
AcDbEntity
  8
GM_Bemassung
 62
     7
440
 16777216
370
    -2
100
AcDbLine
 10
338.8951598240392
 20
471.1963054160864
 30
0.0
 11
338.8951598240392
 21
482.124737961657
 31
0.0
  0
LINE
  5
10788
330
10784
100
AcDbEntity
  8
GM_Bemassung
 62
     7
440
 16777216
370
    -2
100
AcDbLine
 10
379.7795903339556
 20
471.1963054160344
 30
0.0
 11
379.7795903339556
 21
482.124737961657
 31
0.0
  0
LINE
  5
10789
330
10784
100
AcDbEntity
  8
GM_Bemassung
 62
     7
440
 16777216
370
    -2
100
AcDbLine
 10
342.8951598240392
 20
478.124737961657
 30
0.0
 11
375.7795903339556
 21
478.124737961657
 31
0.0
  0
SOLID
  5
1078A
330
10784
100
AcDbEntity
  8
GM_Bemassung
 62
     7
440
 16777216
100
AcDbTrace
 10
342.8951598240392
 20
478.7914046283237
 30
0.0
 11
342.8951598240392
 21
477.4580712949903
 31
0.0
 12
338.8951598240392
 22
478.124737961657
 32
0.0
 13
338.8951598240392
 23
478.124737961657
 33
0.0
  0
SOLID
  5
1078B
330
10784
100
AcDbEntity
  8
GM_Bemassung
 62
     7
440
 16777216
100
AcDbTrace
 10
375.7795903339556
 20
478.7914046283237
 30
0.0
 11
375.7795903339556
 21
477.4580712949903
 31
0.0
 12
379.7795903339556
 22
478.124737961657
 32
0.0
 13
379.7795903339556
 23
478.124737961657
 33
0.0
  0
MTEXT
  5
1078C
330
10784
100
AcDbEntity
  8
GM_Bemassung
 62
     7
440
 16777216
100
AcDbMText
 10
359.3373750789974
 20
483.6390626546993
 30
0.0
 40
7.0
 41
0.0
 46
0.0
 71
     5
 72
     1
  1
\A1;41
 73
     1
 44
1.0
  0
POINT
  5
1078D
330
10784
100
AcDbEntity
  8
Defpoints
 62
     0
440
 16777216
100
AcDbPoint
 10
338.8951598240392
 20
461.1963054160863
 30
0.0
  0
POINT
  5
1078E
330
10784
100
AcDbEntity
  8
Defpoints
 62
     0
440
 16777216
100
AcDbPoint
 10
379.7795903339556
 20
461.1963054160344
 30
0.0
  0
POINT
  5
1078F
330
10784
100
AcDbEntity
  8
Defpoints
 62
     0
440
 16777216
100
AcDbPoint
 10
379.7795903339556
 20
478.124737961657
 30
0.0
  0
ENDBLK
  5
10786
330
10784
100
AcDbEntity
  8
0
100
AcDbBlockEnd
  0
BLOCK
  5
10791
330
10790
100
AcDbEntity
  8
0
100
AcDbBlockBegin
  2
*D77
 70
     1
 10
0.0
 20
0.0
 30
0.0
  3
*D77
  1

  0
LINE
  5
10793
330
10790
100
AcDbEntity
  8
GM_Bemassung
 62
     7
440
 16777216
370
    -2
100
AcDbLine
 10
329.3966840705258
 20
461.4897496962562
 30
0.0
 11
316.2532347909547
 21
461.4897496962562
 31
0.0
  0
LINE
  5
10794
330
10790
100
AcDbEntity
  8
GM_Bemassung
 62
     7
440
 16777216
370
    -2
100
AcDbLine
 10
329.996303008904
 20
421.430785188822
 30
0.0
 11
316.2532347909547
 21
421.430785188822
 31
0.0
  0
LINE
  5
10795
330
10790
100
AcDbEntity
  8
GM_Bemassung
 62
     7
440
 16777216
370
    -2
100
AcDbLine
 10
320.2532347909547
 20
457.4897496962562
 30
0.0
 11
320.2532347909547
 21
425.430785188822
 31
0.0
  0
SOLID
  5
10796
330
10790
100
AcDbEntity
  8
GM_Bemassung
 62
     7
440
 16777216
100
AcDbTrace
 10
319.586568124288
 20
457.4897496962562
 30
0.0
 11
320.9199014576214
 21
457.4897496962562
 31
0.0
 12
320.2532347909547
 22
461.4897496962562
 32
0.0
 13
320.2532347909547
 23
461.4897496962562
 33
0.0
  0
SOLID
  5
10797
330
10790
100
AcDbEntity
  8
GM_Bemassung
 62
     7
440
 16777216
100
AcDbTrace
 10
319.586568124288
 20
425.430785188822
 30
0.0
 11
320.9199014576214
 21
425.430785188822
 31
0.0
 12
320.2532347909547
 22
421.430785188822
 32
0.0
 13
320.2532347909547
 23
421.430785188822
 33
0.0
  0
MTEXT
  5
10798
330
10790
100
AcDbEntity
  8
GM_Bemassung
 62
     7
440
 16777216
100
AcDbMText
 10
314.6792238769029
 20
441.460267442539
 30
0.0
 40
7.0
 41
0.0
 46
0.0
 71
     5
 72
     1
  1
\A1;40
 11
0.0000000000000001
 21
1.0
 31
0.0
 73
     1
 44
1.0
  0
POINT
  5
10799
330
10790
100
AcDbEntity
  8
Defpoints
 62
     0
440
 16777216
100
AcDbPoint
 10
339.3966840705258
 20
461.4897496962562
 30
0.0
  0
POINT
  5
1079A
330
10790
100
AcDbEntity
  8
Defpoints
 62
     0
440
 16777216
100
AcDbPoint
 10
339.996303008904
 20
421.430785188822
 30
0.0
  0
POINT
  5
1079B
330
10790
100
AcDbEntity
  8
Defpoints
 62
     0
440
 16777216
100
AcDbPoint
 10
320.2532347909547
 20
421.430785188822
 30
0.0
  0
ENDBLK
  5
10792
330
10790
100
AcDbEntity
  8
0
100
AcDbBlockEnd
  0
BLOCK
  5
1079D
330
1079C
100
AcDbEntity
  8
0
100
AcDbBlockBegin
  2
*D78
 70
     1
 10
0.0
 20
0.0
 30
0.0
  3
*D78
  1

  0
LINE
  5
107C6
330
1079C
100
AcDbEntity
  8
GM_Bemassung
 62
     7
440
 16777216
370
    -2
100
AcDbLine
 10
146.3109571819044
 20
303.3014050988313
 30
0.0
 11
107.5207830701273
 21
303.3014050988313
 31
0.0
  0
LINE
  5
107C7
330
1079C
100
AcDbEntity
  8
GM_Bemassung
 62
     7
440
 16777216
370
    -2
100
AcDbLine
 10
127.5600283524503
 20
177.1649218343964
 30
0.0
 11
107.5207830701274
 21
177.1649218343964
 31
0.0
  0
LINE
  5
107C8
330
1079C
100
AcDbEntity
  8
GM_Bemassung
 62
     7
440
 16777216
370
    -2
100
AcDbLine
 10
111.5207830701273
 20
299.3014050988313
 30
0.0
 11
111.5207830701274
 21
181.1649218343964
 31
0.0
  0
SOLID
  5
107C9
330
1079C
100
AcDbEntity
  8
GM_Bemassung
 62
     7
440
 16777216
100
AcDbTrace
 10
110.8541164034607
 20
299.3014050988313
 30
0.0
 11
112.187449736794
 21
299.3014050988313
 31
0.0
 12
111.5207830701273
 22
303.3014050988313
 32
0.0
 13
111.5207830701273
 23
303.3014050988313
 33
0.0
  0
SOLID
  5
107CA
330
1079C
100
AcDbEntity
  8
GM_Bemassung
 62
     7
440
 16777216
100
AcDbTrace
 10
110.8541164034607
 20
181.1649218343964
 30
0.0
 11
112.187449736794
 21
181.1649218343964
 31
0.0
 12
111.5207830701274
 22
177.1649218343964
 32
0.0
 13
111.5207830701274
 23
177.1649218343964
 33
0.0
  0
MTEXT
  5
107CB
330
1079C
100
AcDbEntity
  8
GM_Bemassung
 62
     7
440
 16777216
100
AcDbMText
 10
105.9467721560755
 20
240.2331634666138
 30
0.0
 40
7.0
 41
0.0
 46
0.0
 71
     5
 72
     1
  1
\A1;126
 11
0.0000000000000001
 21
1.0
 31
0.0
 73
     1
 44
1.0
  0
POINT
  5
107CC
330
1079C
100
AcDbEntity
  8
Defpoints
 62
     0
440
 16777216
100
AcDbPoint
 10
156.3109571819044
 20
303.3014050988313
 30
0.0
  0
POINT
  5
107CD
330
1079C
100
AcDbEntity
  8
Defpoints
 62
     0
440
 16777216
100
AcDbPoint
 10
137.5600283524503
 20
177.1649218343964
 30
0.0
  0
POINT
  5
107CE
330
1079C
100
AcDbEntity
  8
Defpoints
 62
     0
440
 16777216
100
AcDbPoint
 10
111.5207830701274
 20
177.1649218343964
 30
0.0
  0
ENDBLK
  5
1079E
330
1079C
100
AcDbEntity
  8
0
100
AcDbBlockEnd
  0
BLOCK
  5
107A9
330
107A8
100
AcDbEntity
  8
0
100
AcDbBlockBegin
  2
*D79
 70
     1
 10
0.0
 20
0.0
 30
0.0
  3
*D79
  1

  0
LINE
  5
107AB
330
107A8
100
AcDbEntity
  8
GM_Bemassung
 62
     7
440
 16777216
370
    -2
100
AcDbLine
 10
137.2600283524507
 20
167.4649218343961
 30
0.0
 11
137.2600283524507
 21
153.677363174962
 31
0.0
  0
LINE
  5
107AC
330
107A8
100
AcDbEntity
  8
GM_Bemassung
 62
     7
440
 16777216
370
    -2
100
AcDbLine
 10
222.7600283524507
 20
167.1649218343982
 30
0.0
 11
222.7600283524507
 21
153.677363174962
 31
0.0
  0
LINE
  5
107AD
330
107A8
100
AcDbEntity
  8
GM_Bemassung
 62
     7
440
 16777216
370
    -2
100
AcDbLine
 10
141.2600283524507
 20
157.677363174962
 30
0.0
 11
218.7600283524507
 21
157.677363174962
 31
0.0
  0
SOLID
  5
107AE
330
107A8
100
AcDbEntity
  8
GM_Bemassung
 62
     7
440
 16777216
100
AcDbTrace
 10
141.2600283524507
 20
158.3440298416286
 30
0.0
 11
141.2600283524507
 21
157.0106965082953
 31
0.0
 12
137.2600283524507
 22
157.677363174962
 32
0.0
 13
137.2600283524507
 23
157.677363174962
 33
0.0
  0
SOLID
  5
107AF
330
107A8
100
AcDbEntity
  8
GM_Bemassung
 62
     7
440
 16777216
100
AcDbTrace
 10
218.7600283524507
 20
158.3440298416286
 30
0.0
 11
218.7600283524507
 21
157.0106965082953
 31
0.0
 12
222.7600283524507
 22
157.677363174962
 32
0.0
 13
222.7600283524507
 23
157.677363174962
 33
0.0
  0
MTEXT
  5
107B0
330
107A8
100
AcDbEntity
  8
GM_Bemassung
 62
     7
440
 16777216
100
AcDbMText
 10
180.0100283524507
 20
163.2513740890138
 30
0.0
 40
7.0
 41
0.0
 46
0.0
 71
     5
 72
     1
  1
\A1;86
 73
     1
 44
1.0
  0
POINT
  5
107B1
330
107A8
100
AcDbEntity
  8
Defpoints
 62
     0
440
 16777216
100
AcDbPoint
 10
137.2600283524507
 20
177.4649218343961
 30
0.0
  0
POINT
  5
107B2
330
107A8
100
AcDbEntity
  8
Defpoints
 62
     0
440
 16777216
100
AcDbPoint
 10
222.7600283524507
 20
177.1649218343982
 30
0.0
  0
POINT
  5
107B3
330
107A8
100
AcDbEntity
  8
Defpoints
 62
     0
440
 16777216
100
AcDbPoint
 10
222.7600283524507
 20
157.677363174962
 30
0.0
  0
ENDBLK
  5
107AA
330
107A8
100
AcDbEntity
  8
0
100
AcDbBlockEnd
  0
ENDSEC
  0
SECTION
  2
ENTITIES
  0
HATCH
  5
10694
330
1F
100
AcDbEntity
  8
GM_Stahl
100
AcDbHatch
 10
0.0
 20
0.0
 30
0.0
210
0.0
220
0.0
230
1.0
  2
ANSI31
 70
     0
 71
     1
 91
        1
 92
        1
 93
       52
 72
     1
 10
139.56002835245
 20
287.1330478576856
 11
139.56002835245
 21
192.1119610737223
 72
     2
 10
139.8600283524492
 20
192.1119610737223
 40
0.2999999999992724
 50
180.0
 51
270.0
 73
     1
 72
     1
 10
139.8600283524492
 20
191.811961073723
 11
143.9600283524514
 21
191.811961073723
 72
     2
 10
143.9600283524514
 20
191.5119610737238
 40
0.2999999999992724
 50
270.0
 51
360.0
 73
     0
 72
     1
 10
144.2600283524507
 20
191.5119610737238
 11
144.2600283524507
 21
190.1119610737223
 72
     2
 10
143.9600283524514
 20
190.1119610737223
 40
0.2999999999992724
 50
360.0
 51
450.0
 73
     0
 72
     1
 10
143.9600283524514
 20
189.811961073723
 11
139.8600283524492
 21
189.811961073723
 72
     2
 10
139.8600283524492
 20
189.5119610737238
 40
0.2999999999992724
 50
90.0
 51
180.0
 73
     1
 72
     1
 10
139.56002835245
 20
189.5119610737238
 11
139.56002835245
 21
179.764921834394
 72
     2
 10
139.8600283524456
 20
179.764921834394
 40
0.2999999999956344
 50
180.0
 51
270.0
 73
     1
 72
     1
 10
139.8600283524456
 20
179.4649218343984
 11
214.734252800451
 21
179.4649218343966
 72
     2
 10
214.7342528004519
 20
179.7649218343966
 40
0.3000000000000114
 50
269.9999999998263
 51
324.999999999802
 73
     1
 72
     1
 10
214.979998413738
 20
179.5928489034904
 11
216.5142827391637
 21
181.7840340046223
 72
     2
 10
216.7600283524525
 20
181.6119610737153
 40
0.3000000000026755
 50
215.0000000000236
 51
295.0000000000843
 73
     0
 72
     1
 10
216.8868138309763
 20
181.8838534098286
 11
222.0139522549971
 21
179.4930294982841
 72
     2
 10
222.1407377335158
 20
179.764921834394
 40
0.2999999999974773
 50
245.0000000005063
 51
270.0000000006079
 73
     1
 72
     1
 10
222.140737733519
 20
179.4649218343966
 11
222.7600283524471
 21
179.4649218343966
 72
     2
 10
222.7600283524471
 20
179.1649218343973
 40
0.2999999999992724
 50
270.0
 51
360.0
 73
     0
 72
     1
 10
223.0600283524463
 20
179.1649218343973
 11
223.06002835245
 21
177.4649218343988
 72
     2
 10
222.7600283524503
 20
177.464921834398
 40
0.2999999999997271
 50
359.9999999998372
 51
449.9999999999132
 73
     0
 72
     1
 10
222.7600283524507
 20
177.1649218343982
 11
137.56002835245
 21
177.1649218343964
 72
     2
 10
137.5600283524504
 20
177.4649218343961
 40
0.2999999999997271
 50
90.00000000008688
 51
180.0000000000868
 73
     0
 72
     1
 10
137.2600283524507
 20
177.4649218343966
 11
137.2600283524507
 21
298.3249761230127
 72
     2
 10
137.56002835245
 20
298.3249761230132
 40
0.2999999999992724
 50
179.9999999999023
 51
268.5049827062464
 73
     0
 72
     1
 10
137.552201348436
 20
298.6248740023116
 11
149.3638953960062
 21
298.9331461946022
 72
     2
 10
149.3378053826341
 20
299.9328057922705
 40
1.000000000004122
 50
271.4950172933002
 51
294.3965425913664
 73
     1
 72
     1
 10
149.7508548581745
 20
299.0220972050902
 11
155.1894084995028
 21
301.4887388519383
 72
     2
 10
155.3133233421667
 20
301.2155262757905
 40
0.2999999999962166
 50
245.6034574078265
 51
262.5393760022713
 73
     0
 72
     1
 10
155.2743699021657
 20
301.5129865748386
 11
156.0153198074613
 21
301.6100164903273
 72
     2
 10
155.9763663674607
 20
301.9074767893813
 40
0.3000000000019218
 50
277.4606239974974
 51
369.9999999999953
 73
     1
 72
     1
 10
156.2718086933664
 20
301.9595712426817
 11
156.1093031801674
 21
302.8811858052595
 72
     2
 10
156.503226281372
 20
302.9506450763238
 40
0.3999999999992592
 50
170.0000000003383
 51
312.5413009793407
 73
     0
 72
     1
 10
156.7736748772213
 20
303.2453611379879
 11
157.6834849352881
 21
302.4104665234809
 72
     2
 10
156.8045269987774
 20
301.4526393230707
 40
1.300000000000279
 50
312.5413009792924
 51
425.6034574084026
 73
     0
 72
     1
 10
157.3414913169827
 20
300.268718159743
 11
149.9155013868976
 21
296.9006800307397
 72
     2
 10
148.6763529602694
 20
299.6328057922613
 40
2.999999999997467
 50
65.60345740836118
 51
90.00000000003476
 73
     0
 72
     1
 10
148.6763529602676
 20
296.6328057922638
 11
145.0578892618096
 21
296.6328057922638
 72
     2
 10
145.0578892618082
 20
296.3328057922621
 40
0.300000000001603
 50
89.99999999973944
 51
179.9999999997286
 73
     1
 72
     1
 10
144.7578892618066
 20
296.3328057922636
 11
144.7578892618066
 21
294.8570698609756
 72
     2
 10
144.4578892618078
 20
294.8570698609748
 40
0.2999999999988176
 50
359.9999999998589
 51
494.9999999998541
 73
     0
 72
     1
 10
144.2457572274534
 20
294.6449378266193
 11
142.3457572274519
 21
296.5449378266198
 72
     2
 10
142.133625193097
 20
296.3328057922662
 40
0.2999999999976229
 50
44.99999999983112
 51
89.9999999998263
 73
     1
 72
     1
 10
142.1336251930979
 20
296.6328057922638
 11
139.8600283524492
 21
296.6328057922638
 72
     2
 10
139.8600283524492
 20
296.3328057922645
 40
0.2999999999992724
 50
90.0
 51
180.0
 73
     1
 72
     1
 10
139.56002835245
 20
296.3328057922645
 11
139.56002835245
 21
290.8100031198628
 72
     2
 10
139.8600283524501
 20
290.8100031198607
 40
0.3000000000001819
 50
179.9999999995874
 51
224.9999999993398
 73
     1
 72
     1
 10
139.6478963180916
 20
290.597871085507
 11
142.390436757144
 21
287.8553306464564
 72
     2
 10
142.1783047227904
 20
287.6431986120979
 40
0.3000000000000748
 50
314.9999999993322
 51
344.9999999994812
 73
     0
 72
     1
 10
142.4680824706765
 20
287.7208443256313
 11
143.192775796967
 21
285.0162520120139
 72
     2
 10
142.9029980490827
 20
284.9386062984834
 40
0.2999999999975695
 50
344.9999999999261
 51
494.9999999995394
 73
     0
 72
     1
 10
142.6908660147301
 20
284.7264742641273
 11
140.0721603868069
 21
287.3451798920432
 72
     2
 10
139.8600283524515
 20
287.1330478576841
 40
0.3000000000018433
 50
45.00000000051434
 51
179.9999999997069
 73
     1
 97
        1
330
10695
 75
     1
 76
     1
 52
0.0
 41
0.4
 77
     0
 78
     1
 53
45.0
 43
-401.2480501584405
 44
-687.9890559120667
 45
-0.8980256121069153
 46
0.8980256121069153
 79
     0
 98
        1
 10
-401.2480501584405
 20
-687.9890559120667
1001
GradientColor1ACI
1070
     5
1001
GradientColor2ACI
1070
     2
1001
ACAD
1010
0.0
1020
0.0
1030
0.0
  0
LWPOLYLINE
  5
10695
102
{ACAD_REACTORS
330
10694
330
1070D
330
10713
102
}
330
1F
100
AcDbEntity
  8
GM_Stahl
100
AcDbPolyline
 90
       52
 70
     1
 43
0.0
 10
139.56002835245
 20
287.1330478576856
 10
139.56002835245
 20
192.1119610737223
 42
0.4142135623730951
 10
139.8600283524492
 20
191.811961073723
 10
143.9600283524514
 20
191.811961073723
 42
-0.4142135623730951
 10
144.2600283524507
 20
191.5119610737238
 10
144.2600283524507
 20
190.1119610737223
 42
-0.4142135623730951
 10
143.9600283524514
 20
189.811961073723
 10
139.8600283524492
 20
189.811961073723
 42
0.4142135623730951
 10
139.56002835245
 20
189.5119610737238
 10
139.56002835245
 20
179.764921834394
 42
0.4142135623730951
 10
139.8600283524456
 20
179.4649218343984
 10
214.734252800451
 20
179.4649218343966
 42
0.2446984432289216
 10
214.979998413738
 20
179.5928489034904
 10
216.5142827391637
 20
181.7840340046223
 42
-0.3639702342665307
 10
216.8868138309763
 20
181.8838534098286
 10
222.0139522549971
 20
179.4930294982841
 42
0.1095178116837058
 10
222.140737733519
 20
179.4649218343966
 10
222.7600283524471
 20
179.4649218343966
 42
-0.4142135623730951
 10
223.0600283524463
 20
179.1649218343973
 10
223.06002835245
 20
177.4649218343988
 42
-0.4142135623734694
 10
222.7600283524507
 20
177.1649218343982
 10
137.56002835245
 20
177.1649218343964
 42
-0.4142135623731013
 10
137.2600283524507
 20
177.4649218343966
 10
137.2600283524507
 20
298.3249761230127
 42
-0.4065915937550561
 10
137.552201348436
 20
298.6248740023116
 10
149.3638953960062
 20
298.9331461946022
 42
0.10026069031366
 10
149.7508548581745
 20
299.0220972050902
 10
155.1894084995028
 20
301.4887388519383
 42
-0.0740316905906707
 10
155.2743699021657
 20
301.5129865748386
 10
156.0153198074613
 20
301.6100164903273
 42
0.4272551165075712
 10
156.2718086933664
 20
301.9595712426817
 10
156.1093031801674
 20
302.8811858052595
 42
-0.7168626486153276
 10
156.7736748772213
 20
303.2453611379879
 10
157.6834849352881
 20
302.4104665234809
 42
-0.5376689428778074
 10
157.3414913169827
 20
300.268718159743
 10
149.9155013868976
 20
296.9006800307397
 42
-0.1068539124901028
 10
148.6763529602676
 20
296.6328057922638
 10
145.0578892618096
 20
296.6328057922638
 42
0.4142135623730118
 10
144.7578892618066
 20
296.3328057922636
 10
144.7578892618066
 20
294.8570698609756
 42
-0.6681786379192989
 10
144.2457572274534
 20
294.6449378266193
 10
142.3457572274519
 20
296.5449378266198
 42
0.198912367379658
 10
142.1336251930979
 20
296.6328057922638
 10
139.8600283524492
 20
296.6328057922638
 42
0.4142135623730951
 10
139.56002835245
 20
296.3328057922645
 10
139.56002835245
 20
290.8100031198628
 42
0.1989123673785365
 10
139.6478963180916
 20
290.597871085507
 10
142.390436757144
 20
287.8553306464564
 42
-0.131652497588072
 10
142.4680824706765
 20
287.7208443256313
 10
143.192775796967
 20
285.0162520120139
 42
-0.7673269879761705
 10
142.6908660147301
 20
284.7264742641273
 10
140.0721603868069
 20
287.3451798920432
 42
0.668178637913999
  0
LWPOLYLINE
  5
10696
102
{ACAD_REACTORS
330
106F5
330
106FB
102
}
330
1F
100
AcDbEntity
  8
GM_Text1
100
AcDbPolyline
 90
        8
 70
     1
 43
0.0
 10
279.920562438745
 20
458.2115089111641
 10
245.4303274788672
 20
450.8803831569105
 42
0.3541185725307558
 10
240.6777976237718
 20
445.0114975525077
 10
240.6777976237718
 20
425.2056672369646
 10
243.6777976237717
 20
425.2056672369646
 10
243.6777976237717
 20
445.0114975525223
 42
-0.3541185725308649
 10
246.0540625513204
 20
447.9459403547236
 10
280.5442975111983
 20
455.2770661089628
  0
LWPOLYLINE
  5
10697
330
1F
100
AcDbEntity
  8
GM_Wand
100
AcDbPolyline
 90
        2
 70
     0
 43
0.0
 10
341.596684070526
 20
424.4307851888217
 10
341.596684070526
 20
422.4307851888218
  0
LWPOLYLINE
  5
10698
330
1F
100
AcDbEntity
  8
GM_Wand
100
AcDbPolyline
 90
        2
 70
     0
 43
0.0
 10
344.2966840705249
 20
426.4307851888218
 10
346.2966840705249
 20
426.4307851888218
  0
LWPOLYLINE
  5
10699
330
1F
100
AcDbEntity
  8
GM_Wand
100
AcDbPolyline
 90
        2
 70
     0
 43
0.0
 10
357.347121282015
 20
447.0243494316084
 10
359.7924902838513
 20
447.5441286586567
  0
LWPOLYLINE
  5
1069A
330
1F
100
AcDbEntity
  8
GM_Wand
100
AcDbPolyline
 90
        2
 70
     0
 43
0.0
 10
358.9137069425924
 20
439.1786127342613
 10
362.1109933057141
 20
439.8582169302856
  0
LWPOLYLINE
  5
1069B
330
1F
100
AcDbEntity
  8
GM_Wand
100
AcDbPolyline
 90
       16
 70
     1
 43
0.0
 10
358.8044284255229
 20
449.7877270550064
 10
365.7433940094106
 20
451.2626497210742
 42
0.4142135623948266
 10
366.1285119643598
 20
451.8556793668879
 10
365.6295239062201
 20
454.2032336085751
 42
0.4142135623544906
 10
365.0364942604556
 20
454.5883515635025
 10
341.291207371647
 20
449.5411350265633
 42
0.35413560569636
 10
340.8951632179742
 20
449.0520309559517
 10
340.8966840705252
 20
424.9307851888217
 42
0.4142135623730951
 10
341.3966840705252
 20
424.4307851888217
 10
343.7966840705249
 20
424.4307851888217
 42
0.4142135623730951
 10
344.2966840705249
 20
424.9307851888217
 10
344.2966840705267
 20
433.7484602646356
 42
-0.3788661086954151
 10
347.8092066969075
 20
437.7186448712011
 10
358.7072523791503
 20
439.0567566249912
 42
0.4400105308933247
 10
358.9641358563495
 20
439.4168939777293
 10
357.2639566056933
 20
447.4156084719045
 42
-0.4142135623725736
  0
LINE
  5
1069C
330
1F
100
AcDbEntity
  8
GM_Wand
100
AcDbLine
 10
368.4822072914758
 20
451.8448024552538
 30
0.0
 11
365.7433940094106
 21
451.2626497210742
 31
0.0
  0
LINE
  5
1069D
330
1F
100
AcDbEntity
  8
GM_Wand
100
AcDbLine
 10
365.0364942604556
 20
454.5883515635025
 30
0.0
 11
367.286233742112
 21
455.0665484523753
 31
0.0
  0
LINE
  5
1069E
330
1F
100
AcDbEntity
  8
GM_Wand
100
AcDbLine
 10
361.2584550010397
 20
427.2399464610982
 30
0.0
 11
362.06272745137
 21
422.678690735521
 31
0.0
  0
ARC
  5
1069F
330
1F
100
AcDbEntity
  8
GM_Wand
100
AcDbCircle
 10
362.3581697772733
 20
422.7307851888211
 30
0.0
 40
0.2999999999995113
100
AcDbArc
 50
190.0000000000661
 51
270.0000000001042
  0
LINE
  5
106A0
330
1F
100
AcDbEntity
  8
GM_Wand
100
AcDbLine
 10
362.3581697772733
 20
422.4307851888218
 30
0.0
 11
366.5966840705314
 21
422.4307851888218
 31
0.0
  0
ARC
  5
106A1
330
1F
100
AcDbEntity
  8
GM_Wand
100
AcDbCircle
 10
366.5966840705314
 20
422.7307851888211
 30
0.0
 40
0.2999999999992724
100
AcDbArc
 50
270.0
 51
0.0
  0
LINE
  5
106A2
330
1F
100
AcDbEntity
  8
GM_Wand
100
AcDbLine
 10
366.8966840705307
 20
422.7307851888211
 30
0.0
 11
366.8966840705307
 21
436.8041399640544
 31
0.0
  0
ARC
  5
106A3
330
1F
100
AcDbEntity
  8
GM_Wand
100
AcDbCircle
 10
367.1966840705299
 20
436.8041399640544
 30
0.0
 40
0.2999999999992724
100
AcDbArc
 50
90.0
 51
180.0
  0
LINE
  5
106A4
330
1F
100
AcDbEntity
  8
GM_Wand
100
AcDbLine
 10
367.1966840705299
 20
437.1041399640537
 30
0.0
 11
369.4131312606569
 21
437.1041399640537
 31
0.0
  0
ARC
  5
106A5
330
1F
100
AcDbEntity
  8
GM_Wand
100
AcDbCircle
 10
369.4131312606533
 20
438.6041399640592
 30
0.0
 40
1.500000000005435
100
AcDbArc
 50
270.0000000001042
 51
291.3764325524939
  0
LINE
  5
106A6
330
1F
100
AcDbEntity
  8
GM_Wand
100
AcDbLine
 10
369.9598719347141
 20
437.2073312315035
 30
0.0
 11
378.9171637250129
 21
440.7134059266493
 31
0.0
  0
ARC
  5
106A7
330
1F
100
AcDbEntity
  8
GM_Wand
100
AcDbCircle
 10
378.4433218074955
 20
441.9239734948616
 30
0.0
 40
1.300000000001579
100
AcDbArc
 50
291.3764325524093
 51
47.45869902072644
  0
LINE
  5
106A8
330
1F
100
AcDbEntity
  8
GM_Wand
100
AcDbLine
 10
379.3222797440066
 20
442.8818006952726
 30
0.0
 11
378.4124696859399
 21
443.7166953097778
 31
0.0
  0
ARC
  5
106A9
330
1F
100
AcDbEntity
  8
GM_Wand
100
AcDbCircle
 10
378.1420210900906
 20
443.4219792481137
 30
0.0
 40
0.3999999999993822
100
AcDbArc
 50
47.45869902065282
 51
189.9999999996355
  0
LINE
  5
106AA
330
1F
100
AcDbEntity
  8
GM_Wand
100
AcDbLine
 10
377.748097988886
 20
443.3525199770494
 30
0.0
 11
377.910603502085
 21
442.4309054144717
 31
0.0
  0
ARC
  5
106AB
330
1F
100
AcDbEntity
  8
GM_Wand
100
AcDbCircle
 10
377.6151611761798
 20
442.3788109611717
 30
0.0
 40
0.3000000000019003
100
AcDbArc
 50
277.4606239974225
 51
9.999999999946158
  0
LINE
  5
106AC
330
1F
100
AcDbEntity
  8
GM_Wand
100
AcDbLine
 10
377.6541146161799
 20
442.0813506621173
 30
0.0
 11
374.7388765489414
 21
441.6995903011641
 31
0.0
  0
ARC
  5
106AD
330
1F
100
AcDbEntity
  8
GM_Wand
100
AcDbCircle
 10
374.9985661607625
 20
439.7165216423702
 30
0.0
 40
1.999999999994602
100
AcDbArc
 50
97.46062433903119
 51
111.3764325524092
  0
LINE
  5
106AE
330
1F
100
AcDbEntity
  8
GM_Wand
100
AcDbLine
 10
374.2695785953547
 20
441.5789332857668
 30
0.0
 11
370.342339557039
 21
440.0417283206508
 31
0.0
  0
ARC
  5
106AF
330
1F
100
AcDbEntity
  8
GM_Wand
100
AcDbCircle
 10
369.6133519916311
 20
441.9041399640511
 30
0.0
 40
1.999999999998099
100
AcDbArc
 50
270.0
 51
291.3764325524093
  0
LINE
  5
106B0
330
1F
100
AcDbEntity
  8
GM_Wand
100
AcDbLine
 10
369.6133519916293
 20
439.9041399640529
 30
0.0
 11
369.2783930587975
 21
439.9041399640529
 31
0.0
  0
ARC
  5
106B1
330
1F
100
AcDbEntity
  8
GM_Wand
100
AcDbCircle
 10
369.2783930588248
 20
379.9041399640457
 30
0.0
 40
60.00000000000639
100
AcDbArc
 50
90.0
 51
95.71766096262567
  0
ARC
  5
106B2
330
1F
100
AcDbEntity
  8
GM_Wand
100
AcDbCircle
 10
363.1015523598981
 20
441.5956842710322
 30
0.0
 40
1.999999999999117
100
AcDbArc
 50
191.9999999999711
 51
275.7176609626256
  0
LINE
  5
106B3
330
1F
100
AcDbEntity
  8
GM_Wand
100
AcDbLine
 10
361.1452571584305
 20
441.1798608893998
 30
0.0
 11
359.7301167766072
 21
447.8375729388747
 31
0.0
  0
ARC
  5
106B4
330
1F
100
AcDbEntity
  8
GM_Wand
100
AcDbCircle
 10
360.023561056827
 20
447.8999464461205
 30
0.0
 40
0.2999999999997518
100
AcDbArc
 50
102.0000000000694
 51
192.0000000000721
  0
LINE
  5
106B5
330
1F
100
AcDbEntity
  8
GM_Wand
100
AcDbLine
 10
359.9611875495812
 20
448.1933907263403
 30
0.0
 11
377.3663324613208
 21
451.8929684841725
 31
0.0
  0
ARC
  5
106B6
330
1F
100
AcDbEntity
  8
GM_Wand
100
AcDbCircle
 10
377.2623766159122
 20
452.3820422845394
 30
0.0
 40
0.4999999999995288
100
AcDbArc
 50
281.9999999999634
 51
12.0000000026207
  0
LINE
  5
106B7
330
1F
100
AcDbEntity
  8
GM_Wand
100
AcDbLine
 10
377.7514504162736
 20
452.4859981299698
 30
0.0
 11
377.585121063521
 21
453.2685162108475
 31
0.0
  0
ARC
  5
106B8
330
1F
100
AcDbEntity
  8
GM_Wand
100
AcDbCircle
 10
377.0960472631596
 20
453.1645603654189
 30
0.0
 40
0.4999999999988035
100
AcDbArc
 50
12.00000000231137
 51
102.0000000033731
  0
LINE
  5
106B9
330
1F
100
AcDbEntity
  8
GM_Wand
100
AcDbLine
 10
376.9920914177219
 20
453.6536341657786
 30
0.0
 11
375.499673955197
 21
453.3364110412796
 31
0.0
  0
ARC
  5
106BA
330
1F
100
AcDbEntity
  8
GM_Wand
100
AcDbCircle
 10
375.4373004479348
 20
453.6298553214958
 30
0.0
 40
0.3
100
AcDbArc
 50
192.0000000025196
 51
282.0000000032658
  0
LINE
  5
106BB
330
1F
100
AcDbEntity
  8
GM_Wand
100
AcDbLine
 10
375.1438561677169
 20
453.5674818142372
 30
0.0
 11
374.5617034332767
 21
456.3062950964154
 31
0.0
  0
LINE
  5
106BC
330
1F
100
AcDbEntity
  8
GM_Wand
100
AcDbLine
 10
376.3830064289586
 20
458.8001271769964
 30
0.0
 11
379.5419638412004
 21
459.4715843029964
 31
0.0
  0
ARC
  5
106BD
330
1F
100
AcDbEntity
  8
GM_Wand
100
AcDbCircle
 10
379.4795903339418
 20
459.7650285832253
 30
0.0
 40
0.300000000011416
100
AcDbArc
 50
282.000000001987
 51
359.9999999985409
  0
LINE
  5
106BE
102
{ACAD_REACTORS
330
10701
102
}
330
1F
100
AcDbEntity
  8
GM_Wand
100
AcDbLine
 10
379.7795903339538
 20
459.765028583218
 30
0.0
 11
379.7795903339556
 21
461.1963054160344
 31
0.0
  0
ARC
  5
106BF
330
1F
100
AcDbEntity
  8
GM_Wand
100
AcDbCircle
 10
379.4795903339545
 20
461.1963054160344
 30
0.0
 40
0.3000000000013117
100
AcDbArc
 50
0.0
 51
101.9999999999634
  0
LINE
  5
106C0
330
1F
100
AcDbEntity
  8
GM_Wand
100
AcDbLine
 10
379.4172168267087
 20
461.489749696256
 30
0.0
 11
371.2720745637071
 21
459.7584462625138
 31
0.0
  0
ARC
  5
106C1
330
1F
100
AcDbEntity
  8
GM_Wand
100
AcDbCircle
 10
371.3344480709566
 20
459.4650019822922
 30
0.0
 40
0.3000000000022871
100
AcDbArc
 50
102.0000000006021
 51
192.0000000010275
  0
LINE
  5
106C2
330
1F
100
AcDbEntity
  8
GM_Wand
100
AcDbLine
 10
371.041003790735
 20
459.4026284750409
 30
0.0
 11
371.2489154815557
 21
458.424480874429
 31
0.0
  0
ARC
  5
106C3
330
1F
100
AcDbEntity
  8
GM_Wand
100
AcDbCircle
 10
371.444545001701
 20
458.4660632125953
 30
0.0
 40
0.1999999999992102
100
AcDbArc
 50
192.0000000009201
 51
282.0000000029464
  0
LINE
  5
106C4
330
1F
100
AcDbEntity
  8
GM_Wand
100
AcDbLine
 10
371.4861273398747
 20
458.2704336924519
 30
0.0
 11
372.0730159003088
 21
458.39518070698
 31
0.0
  0
ARC
  5
106C5
330
1F
100
AcDbEntity
  8
GM_Wand
100
AcDbCircle
 10
372.1145982384824
 20
458.1995511868365
 30
0.0
 40
0.1999999999988862
100
AcDbArc
 50
12.00000000304473
 51
102.0000000030524
  0
LINE
  5
106C6
330
1F
100
AcDbEntity
  8
GM_Wand
100
AcDbLine
 10
372.3102277586276
 20
458.2411335250101
 30
0.0
 11
373.3831904864692
 21
453.1932407707511
 31
0.0
  0
LINE
  5
106C7
330
1F
100
AcDbEntity
  8
GM_Wand
100
AcDbLine
 10
373.1521197135153
 20
452.8374229832727
 30
0.0
 11
368.4822072914758
 21
451.8448024552538
 31
0.0
  0
ARC
  5
106C8
330
1F
100
AcDbEntity
  8
GM_Wand
100
AcDbCircle
 10
373.0897462062531
 20
453.1308672634889
 30
0.0
 40
0.3
100
AcDbArc
 50
282.0000000033732
 51
12.00000000348054
  0
ARC
  5
106C9
330
1F
100
AcDbEntity
  8
GM_Wand
100
AcDbCircle
 10
368.3782514460381
 20
452.3338762556152
 30
0.0
 40
0.5000000000006406
100
AcDbArc
 50
192.0000000033795
 51
282.0000000033732
  0
LINE
  5
106CA
330
1F
100
AcDbEntity
  8
GM_Wand
100
AcDbLine
 10
367.8891776456767
 20
452.2299204101775
 30
0.0
 11
366.9119926985604
 21
456.8272141335394
 31
0.0
  0
ARC
  5
106CB
330
1F
100
AcDbEntity
  8
GM_Wand
100
AcDbCircle
 10
367.1076222187039
 20
456.8687964717148
 30
0.0
 40
0.199999999998697
100
AcDbArc
 50
102.0000000023077
 51
192.0000000034805
  0
LINE
  5
106CC
330
1F
100
AcDbEntity
  8
GM_Wand
100
AcDbLine
 10
367.0660398805321
 20
457.0644259918583
 30
0.0
 11
367.3594841607428
 21
457.1267994991205
 31
0.0
  0
ARC
  5
106CD
330
1F
100
AcDbEntity
  8
GM_Wand
100
AcDbCircle
 10
367.3179018225655
 20
457.3224290192713
 30
0.0
 40
0.2000000000067599
100
AcDbArc
 50
282.0000000036925
 51
12.00000000304473
  0
LINE
  5
106CE
330
1F
100
AcDbEntity
  8
GM_Wand
100
AcDbLine
 10
367.5135313427163
 20
457.3640113574468
 30
0.0
 11
367.3058498402734
 21
458.3410760068611
 31
0.0
  0
ARC
  5
106CF
330
1F
100
AcDbEntity
  8
GM_Wand
100
AcDbCircle
 10
367.0124055600572
 20
458.2787024996061
 30
0.0
 40
0.3
100
AcDbArc
 50
12.00000000188734
 51
104.9999999999944
  0
LINE
  5
106D0
330
1F
100
AcDbEntity
  8
GM_Wand
100
AcDbLine
 10
366.9347598465265
 20
458.5684802474927
 30
0.0
 11
339.2657503007886
 21
451.1545914843657
 31
0.0
  0
ARC
  5
106D1
330
1F
100
AcDbEntity
  8
GM_Wand
100
AcDbCircle
 10
339.3951598233361
 20
450.6716285712238
 30
0.0
 40
0.4999999999995678
100
AcDbArc
 50
104.999999999887
 51
180.0030386362705
  0
LINE
  5
106D2
330
1F
100
AcDbEntity
  8
GM_Wand
100
AcDbLine
 10
338.8951598240401
 20
450.67160205412
 30
0.0
 11
338.8966840705252
 21
421.9307851888218
 31
0.0
  0
ARC
  5
106D3
330
1F
100
AcDbEntity
  8
GM_Wand
100
AcDbCircle
 10
339.3966840705252
 20
421.9307851888218
 30
0.0
 40
0.5
100
AcDbArc
 50
180.0
 51
270.0
  0
ARC
  5
106D4
330
1F
100
AcDbEntity
  8
GM_Wand
100
AcDbCircle
 10
348.2966840705249
 20
433.7484602646283
 30
0.0
 40
2.000000000000109
100
AcDbArc
 50
97.00000000003228
 51
180.0
  0
LINE
  5
106D5
330
1F
100
AcDbEntity
  8
GM_Wand
100
AcDbLine
 10
348.0529453837135
 20
435.7335525679111
 30
0.0
 11
361.7310760403143
 21
437.4130158345626
 31
0.0
  0
ARC
  5
106D6
330
1F
100
AcDbEntity
  8
GM_Wand
100
AcDbCircle
 10
362.0966840705314
 20
434.4353773796385
 30
0.0
 40
3.000000000000065
100
AcDbArc
 50
0.0
 51
97.00000000003228
  0
LINE
  5
106D7
330
1F
100
AcDbEntity
  8
GM_Wand
100
AcDbLine
 10
365.0966840705314
 20
434.4353773796367
 30
0.0
 11
365.0966840705314
 21
425.1550492575345
 31
0.0
  0
LINE
  5
106D8
330
1F
100
AcDbEntity
  8
GM_Wand
100
AcDbLine
 10
364.5845520361745
 20
424.9429172231787
 30
0.0
 11
361.9352208147193
 21
427.5922484446393
 31
0.0
  0
ARC
  5
106D9
330
1F
100
AcDbEntity
  8
GM_Wand
100
AcDbCircle
 10
361.6523781022443
 20
427.3094057321643
 30
0.0
 40
0.4
100
AcDbArc
 50
44.99999999999078
 51
189.9999999999461
  0
ARC
  5
106DA
330
1F
100
AcDbEntity
  8
GM_Wand
100
AcDbCircle
 10
364.7966840705322
 20
425.1550492575345
 30
0.0
 40
0.3
100
AcDbArc
 50
224.9999999999908
 51
0.0
  0
LWPOLYLINE
  5
106DB
102
{ACAD_REACTORS
330
10707
102
}
330
1F
100
AcDbEntity
  8
GM_Wand
100
AcDbPolyline
 90
        8
 70
     0
 43
0.0
 10
346.2966840705249
 20
433.7484602646283
 10
346.2966840705249
 20
422.7307851888211
 42
-0.4142135623730958
 10
345.9966840705256
 20
422.4307851888218
 10
341.1959219472828
 20
422.4307851888218
 42
0.4142135623730919
 10
340.8959219472817
 20
422.1307851888225
 10
340.8959219472817
 20
421.730785188821
 42
-0.4142135623730951
 10
340.5959219472825
 20
421.4307851888218
 10
339.3966840705252
 20
421.4307851888218
  0
LINE
  5
106DC
330
1F
100
AcDbEntity
  8
GM_Wand
100
AcDbLine
 10
374.7927742062493
 20
456.6621128838936
 30
0.0
 11
376.162180847251
 21
456.9531892510324
 31
0.0
  0
LINE
  5
106DD
330
1F
100
AcDbEntity
  8
GM_Wand
100
AcDbLine
 10
375.4996739551807
 20
453.336411041276
 30
0.0
 11
373.1521197134971
 21
452.8374229832709
 31
0.0
  0
LINE
  5
106DE
330
1F
100
AcDbEntity
  8
GM_Wand
100
AcDbLine
 10
376.3932516202231
 20
457.3090070385106
 30
0.0
 11
376.1519356559857
 21
458.444309389518
 31
0.0
  0
ARC
  5
106DF
330
1F
100
AcDbEntity
  8
GM_Wand
100
AcDbCircle
 10
376.4453799362032
 20
458.5066828967761
 30
0.0
 40
0.3
100
AcDbArc
 50
101.999999999856
 51
192.0000000024814
  0
ARC
  5
106E0
330
1F
100
AcDbEntity
  8
GM_Wand
100
AcDbCircle
 10
376.099807340006
 20
457.2466335312525
 30
0.0
 40
0.3
100
AcDbArc
 50
281.9999999999634
 51
12.00000000248149
  0
ARC
  5
106E1
330
1F
100
AcDbEntity
  8
GM_Wand
100
AcDbCircle
 10
374.8551477134943
 20
456.3686686036734
 30
0.0
 40
0.3
100
AcDbArc
 50
101.9999999999634
 51
192.0000000024814
  0
LINE
  5
106E2
330
1F
100
AcDbEntity
  8
GM_Wand
100
AcDbLine
 10
372.7386642447113
 20
456.2254983331779
 30
0.0
 11
374.7927742062493
 21
456.6621128838936
 31
0.0
  0
HATCH
  5
106E3
330
1F
100
AcDbEntity
  8
GM_Wand
100
AcDbHatch
 10
0.0
 20
0.0
 30
0.0
210
0.0
220
0.0
230
1.0
  2
ANSI31
 70
     0
 71
     0
 91
        4
 92
        7
 72
     1
 73
     1
 93
       16
 10
376.1519356559857
 20
458.444309389518
 42
-0.4142135623864946
 10
376.3830064289586
 20
458.8001271769964
 42
0.0
 10
379.5419638411886
 20
459.4715843029938
 42
0.3541185725310305
 10
379.7795903339534
 20
459.7650285832249
 42
0.0
 10
379.7795903339556
 20
461.1963054160339
 42
0.4769755326988694
 10
379.4172168267087
 20
461.4897496962558
 42
0.0
 10
371.2720745637107
 20
459.7584462625146
 42
0.4142135623812021
 10
371.0410037907359
 20
459.4026284750381
 42
0.0
 10
371.2489154815562
 20
458.4244808744265
 42
0.4142135623834362
 10
371.4861273398769
 20
458.2704336924519
 42
0.0
 10
372.0730159003065
 20
458.3951807069795
 42
-0.4142135623741571
 10
372.3102277586254
 20
458.2411335250116
 42
0.0
 10
372.73866424471
 20
456.2254983331778
 42
0.0
 10
374.7927742062493
 20
456.6621128838936
 42
0.0
 10
376.162180847251
 20
456.9531892510324
 42
0.4142135623859148
 10
376.3932516202231
 20
457.3090070385106
 42
0.0
 97
        0
 92
        7
 72
     1
 73
     1
 93
       22
 10
366.9119926985609
 20
456.8272141335397
 42
-0.414213562372782
 10
367.0660398805285
 20
457.0644259918577
 42
0.0
 10
367.3594841607423
 20
457.1267994991205
 42
0.4142135623649883
 10
367.5135313427177
 20
457.3640113574428
 42
0.0
 10
367.3058498402752
 20
458.3410760068614
 42
0.4296339059566127
 10
366.9347598465265
 20
458.5684802474929
 42
0.0
 10
339.2657503007854
 20
451.154591484368
 42
0.3394690452546293
 10
338.8951598240396
 20
450.6716020541195
 42
0.0
 10
338.8966840733378
 20
421.9307321546133
 42
0.4141824959942156
 10
339.3966840705252
 20
421.4307851888218
 42
0.0
 10
340.5959219472825
 20
421.4307851888218
 42
0.4142135623730951
 10
340.8959219472817
 20
421.730785188821
 42
0.0
 10
340.8959219472817
 20
422.1307851888216
 42
-0.4142135623730919
 10
341.1959219472819
 20
422.4307851888218
 42
0.0
 10
341.596684070526
 20
422.4307851888218
 42
0.0
 10
341.596684070526
 20
424.4307851888217
 42
0.0
 10
341.3966840705252
 20
424.4307851888217
 42
-0.4141766288262475
 10
340.8966840745006
 20
424.9307221384904
 42
0.0
 10
340.8951632180519
 20
449.052029701039
 42
-0.3541363118401509
 10
341.2912073716416
 20
449.5411350265621
 42
0.0
 10
365.0364942604556
 20
454.5883515635025
 42
0.0
 10
367.2862337421106
 20
455.0665484523751
 42
0.0
 97
        0
 92
        7
 72
     1
 73
     1
 93
       14
 10
377.3663324613217
 20
451.8929684841731
 42
0.4142135623858336
 10
377.7514504162741
 20
452.4859981299702
 42
0.0
 10
377.5851210635206
 20
453.2685162108498
 42
0.4142135623764066
 10
376.9920914177232
 20
453.6536341657788
 42
0.0
 10
375.499673955197
 20
453.3364110412796
 42
0.0
 10
373.1521197134971
 20
452.8374229832709
 42
0.0
 10
368.4822072914758
 20
451.8448024552538
 42
0.0
 10
365.7433940094106
 20
451.2626497210742
 42
0.0
 10
358.8044284255229
 20
449.7877270550064
 42
0.4142135623724846
 10
357.2639566056933
 20
447.415608471905
 42
0.0
 10
357.3471212820205
 20
447.0243494316096
 42
0.0
 10
359.7924902838522
 20
447.5441286586569
 42
0.0
 10
359.7301167766072
 20
447.8375729388753
 42
-0.4142135623726081
 10
359.9611875495812
 20
448.1933907263403
 42
0.0
 97
        0
 92
        7
 72
     1
 73
     1
 93
       35
 10
378.9171637250124
 20
440.7134059266491
 42
0.5547783920841104
 10
379.3222797440035
 20
442.8818006952761
 42
0.0
 10
378.4124696859385
 20
443.716695309779
 42
0.7168626486168476
 10
377.7480979888864
 20
443.352519977046
 42
0.0
 10
377.910603502085
 20
442.4309054144729
 42
-0.4272551165094373
 10
377.654114616179
 20
442.0813506621176
 42
0.0
 10
374.7388765607684
 20
441.6995903027129
 42
0.0607938997157591
 10
374.2695785953543
 20
441.5789332857666
 42
0.0
 10
370.3423395570407
 20
440.0417283206515
 42
-0.0935437080353221
 10
369.6133519916311
 20
439.904139964053
 42
0.0
 10
369.2783930588102
 20
439.9041399640521
 42
0.0249531795186667
 10
363.3008052856699
 20
439.6056344546789
 42
-0.155728002058586
 10
362.1109933057105
 20
439.8582169302848
 42
0.0
 10
358.9137069425924
 20
439.1786127342613
 42
-0.2084598127856401
 10
358.7072523791512
 20
439.0567566249914
 42
0.0
 10
347.8092066969075
 20
437.7186448712011
 42
0.378866108695354
 10
344.2966840705267
 20
433.7484602646364
 42
0.0
 10
344.2966840705253
 20
426.4307851888218
 42
0.0
 10
346.2966840705249
 20
426.4307851888218
 42
0.0
 10
346.2966840705249
 20
433.7484602646283
 42
-0.3788661086951448
 10
348.0529453837135
 20
435.733552567911
 42
0.0
 10
361.7310760403143
 20
437.4130158345623
 42
-0.4504671536909791
 10
365.0966840705314
 20
434.4353773796385
 42
0.0
 10
365.0966840705323
 20
425.1550492575345
 42
-0.668178637919672
 10
364.5845520361759
 20
424.9429172231788
 42
0.0
 10
361.9352208147193
 20
427.5922484446387
 42
0.733230336262113
 10
361.2584550010392
 20
427.2399464610976
 42
0.0
 10
362.0627274513704
 20
422.678690735521
 42
0.363970234266183
 10
362.3581697772733
 20
422.4307851888215
 42
0.0
 10
366.5966840705314
 20
422.4307851888218
 42
0.4142135623730777
 10
366.8966840705307
 20
422.7307851888211
 42
0.0
 10
366.8966840705307
 20
436.8041399640544
 42
-0.4142135623730951
 10
367.1966840705299
 20
437.1041399640537
 42
0.0
 10
369.4131312606533
 20
437.1041399640537
 42
0.0935437080352485
 10
369.9598719347128
 20
437.2073312315029
 42
0.0
 97
        0
 75
     1
 76
     1
 52
0.0
 41
0.3
 77
     0
 78
     1
 53
45.0
 43
378.1420210900906
 44
443.8219792481134
 45
-0.6735192090801866
 46
0.6735192090801866
 79
     0
 47
0.1584802266270271
 98
        4
 10
373.9304191348788
 20
458.1294593338117
 10
365.0656357473335
 20
455.8368180480855
 10
366.6154230018924
 20
450.4460129439125
 10
366.8013974451142
 20
438.9828066458806
1001
GradientColor1ACI
1070
     5
1001
GradientColor2ACI
1070
     2
1001
ACAD
1010
0.0
1020
0.0
1030
0.0
  0
INSERT
  5
106E4
102
{ACAD_REACTORS
330
106E9
330
106EF
102
}
330
1F
100
AcDbEntity
  8
GM_EPDM
100
AcDbBlockReference
  2
Abdichtungsprofil
 10
154.5710436474655
 20
431.394942007317
 30
0.0
 41
-1.0
  0
HATCH
  5
106E5
330
1F
100
AcDbEntity
  8
GM_Stahl
100
AcDbHatch
 10
0.0
 20
0.0
 30
0.0
210
0.0
220
0.0
230
1.0
  2
ANSI31
 70
     0
 71
     0
 91
        1
 92
        7
 72
     1
 73
     1
 93
       29
 10
399.4411158027924
 20
182.1870913800956
 42
0.0
 10
399.4411158027924
 20
180.4870913800966
 42
-0.4142135623734555
 10
399.1411158027931
 20
180.1870913800965
 42
0.0
 10
313.9411158027929
 20
180.1870913800946
 42
-0.4142135623731047
 10
313.6411158027936
 20
180.4870913800948
 42
0.0
 10
313.6411158027936
 20
293.8321726655606
 42
0.0
 10
315.9411158027929
 20
293.8321726655606
 42
0.198912367379737
 10
316.0289837684381
 20
293.6200406312039
 42
0.0
 10
318.8283648147831
 20
290.8206595848599
 42
0.0
 10
319.5738632473135
 20
288.0384215577117
 42
-0.767326987978727
 10
319.0719534650729
 20
287.7486438098269
 42
0.0
 10
316.4532478371534
 20
290.3673494377392
 42
0.6681786379189246
 10
315.9411158027965
 20
290.155217403382
 42
0.0
 10
315.9411158027965
 20
195.1341306194201
 42
0.4142135623730951
 10
316.2411158027958
 20
194.8341306194208
 42
0.0
 10
320.341115802798
 20
194.8341306194208
 42
-0.4142135623730951
 10
320.6411158027972
 20
194.5341306194216
 42
0.0
 10
320.6411158027972
 20
193.1341306194201
 42
-0.4142135623730951
 10
320.341115802798
 20
192.8341306194209
 42
0.0
 10
316.2411158027958
 20
192.8341306194209
 42
0.4142135623730951
 10
315.9411158027965
 20
192.5341306194216
 42
0.0
 10
315.9411158027965
 20
182.7870913800918
 42
0.414213562373088
 10
316.2411158027921
 20
182.4870913800962
 42
0.0
 10
391.1153402507971
 20
182.4870913800944
 42
0.2446984432290193
 10
391.3610858640841
 20
182.6150184491891
 42
0.0
 10
392.8953701895098
 20
184.8062035503205
 42
-0.363970234266258
 10
393.2679012813187
 20
184.9060229555264
 42
0.0
 10
398.3950397053395
 20
182.5151990439833
 42
0.6373167474306168
 10
398.9256545532317
 20
182.3958411104852
 42
-0.6739145357784271
 97
        0
 75
     1
 76
     1
 52
0.0
 41
0.4
 77
     0
 78
     1
 53
45.0
 43
-224.8669627080976
 44
-684.9668863663687
 45
-0.8980256121069153
 46
0.8980256121069153
 79
     0
 47
0.0
 98
        1
 10
333.5189743674441
 20
214.0095792839559
1001
GradientColor1ACI
1070
     5
1001
GradientColor2ACI
1070
     2
1001
ACAD
1010
0.0
1020
0.0
1030
0.0
  0
LWPOLYLINE
  5
106E6
102
{ACAD_REACTORS
330
10719
330
1071F
102
}
330
1F
100
AcDbEntity
  8
GM_Stahl
100
AcDbPolyline
 90
       31
 70
     1
 43
0.0
 10
313.6411158027936
 20
293.8321726655606
 10
315.9411158027929
 20
293.8321726655606
 42
0.1989123673785395
 10
316.0289837684381
 20
293.6200406312048
 10
318.7715242074905
 20
290.8775001921542
 42
-0.131652497588072
 10
318.8491699210195
 20
290.7430138713291
 10
319.5738632473135
 20
288.0384215577117
 42
-0.7673269879761705
 10
319.0719534650766
 20
287.7486438098251
 10
316.4532478371534
 20
290.3673494377411
 42
0.668178637913999
 10
315.9411158027965
 20
290.1552174033834
 10
315.9411158027965
 20
195.1341306194201
 42
0.4142135623730951
 10
316.2411158027958
 20
194.8341306194208
 10
320.341115802798
 20
194.8341306194208
 42
-0.4142135623730951
 10
320.6411158027972
 20
194.5341306194216
 10
320.6411158027972
 20
193.1341306194201
 42
-0.4142135623730951
 10
320.341115802798
 20
192.8341306194209
 10
316.2411158027958
 20
192.8341306194209
 42
0.4142135623730951
 10
315.9411158027965
 20
192.5341306194216
 10
315.9411158027965
 20
182.7870913800918
 42
0.4142135623730951
 10
316.2411158027921
 20
182.4870913800962
 10
391.1153402507971
 20
182.4870913800944
 42
0.2446984432289216
 10
391.3610858640841
 20
182.6150184491882
 10
392.8953701895098
 20
184.8062035503201
 42
-0.3639702342665307
 10
393.2679012813187
 20
184.9060229555264
 10
398.3950397053432
 20
182.5151990439819
 42
0.1095178116837058
 10
398.5218251838651
 20
182.4870913800944
 10
399.1411158027931
 20
182.4870913800944
 42
-0.4142135623730951
 10
399.4411158027924
 20
182.1870913800951
 10
399.4411158027924
 20
180.4870913800966
 42
-0.4142135623734694
 10
399.1411158027931
 20
180.1870913800965
 10
313.9411158027929
 20
180.1870913800946
 42
-0.4142135623731013
 10
313.6411158027936
 20
180.4870913800944
  0
DIMENSION
  5
106E7
102
{ACAD_XDICTIONARY
360
106E8
102
}
102
{ACAD_REACTORS
330
106E9
102
}
330
1F
100
AcDbEntity
  8
GM_Bemassung
100
AcDbDimension
280
     0
  2
*D72
 10
175.4616592119523
 20
463.3454632257169
 30
0.0
 11
162.7615171540764
 21
468.9194741397687
 31
0.0
 70
    32
 71
     5
 42
25.40028411575168
 73
     0
 74
     0
 75
     0
  3
Bemaßung
100
AcDbAlignedDimension
 13
150.0613750962006
 23
431.3086524485354
 33
0.0
 14
175.4616592119523
 24
446.1201788521688
 34
0.0
100
AcDbRotatedDimension
1001
AcadAnnotative
1000
AnnotativeData
1002
{
1070
     1
1070
     1
1002
}
  0
DIMENSION
  5
106ED
102
{ACAD_XDICTIONARY
360
106EE
102
}
102
{ACAD_REACTORS
330
106EF
102
}
330
1F
100
AcDbEntity
  8
GM_Bemassung
100
AcDbDimension
280
     0
  2
*D73
 10
131.5790373365689
 20
427.4823515953289
 30
0.0
 11
126.0050264225171
 21
436.9005178231487
 31
0.0
 70
    32
 71
     5
 42
18.83633245563999
 73
     0
 74
     0
 75
     0
  3
Bemaßung
100
AcDbAlignedDimension
 13
175.115669348563
 23
446.3186840509687
 33
0.0
 14
155.4026903681423
 24
427.4823515953287
 34
0.0
 50
90.0
100
AcDbRotatedDimension
1001
AcadAnnotative
1000
AnnotativeData
1002
{
1070
     1
1070
     1
1002
}
  0
DIMENSION
  5
106F3
102
{ACAD_XDICTIONARY
360
106F4
102
}
102
{ACAD_REACTORS
330
106F5
102
}
330
1F
100
AcDbEntity
  8
GM_Bemassung
100
AcDbDimension
280
     0
  2
*D74
 10
240.6777976237722
 20
479.7573653098688
 30
0.0
 11
260.2991800312586
 21
485.333763672761
 31
0.0
 70
    32
 71
     5
 42
39.24276481497282
 73
     0
 74
     0
 75
     0
  3
Bemaßung
100
AcDbAlignedDimension
 13
279.920562438745
 23
458.2115089111641
 33
0.0
 14
240.6777976237722
 24
458.2115089111641
 34
0.0
100
AcDbRotatedDimension
1001
AcadAnnotative
1000
AnnotativeData
1002
{
1070
     1
1070
     1
1002
}
  0
DIMENSION
  5
106F9
102
{ACAD_XDICTIONARY
360
106FA
102
}
102
{ACAD_REACTORS
330
106FB
102
}
330
1F
100
AcDbEntity
  8
GM_Bemassung
100
AcDbDimension
280
     0
  2
*D75
 10
215.3010516337637
 20
425.2056672369649
 30
0.0
 11
209.7246532708715
 21
441.7085880740645
 31
0.0
 70
    32
 71
     5
 42
33.00584167419947
 73
     0
 74
     0
 75
     0
  3
Bemaßung
100
AcDbAlignedDimension
 13
240.6777976237722
 23
458.2115089111641
 33
0.0
 14
240.6777976237718
 24
425.2056672369646
 34
0.0
 50
90.0
100
AcDbRotatedDimension
1001
AcadAnnotative
1000
AnnotativeData
1002
{
1070
     1
1070
     1
1002
}
  0
DIMENSION
  5
106FF
102
{ACAD_XDICTIONARY
360
10700
102
}
102
{ACAD_REACTORS
330
10701
102
}
330
1F
100
AcDbEntity
  8
GM_Bemassung
100
AcDbDimension
280
     0
  2
*D76
 10
379.7795903339556
 20
478.124737961657
 30
0.0
 11
359.3373750789974
 21
483.6390626546993
 31
0.0
 70
    32
 71
     5
 42
40.88443050991645
 73
     0
 74
     0
 75
     0
  3
Bemaßung
100
AcDbAlignedDimension
 13
338.8951598240392
 23
461.1963054160863
 33
0.0
 14
379.7795903339556
 24
461.1963054160344
 34
0.0
100
AcDbRotatedDimension
1001
AcadAnnotative
1000
AnnotativeData
1002
{
1070
     1
1070
     1
1002
}
  0
DIMENSION
  5
10705
102
{ACAD_XDICTIONARY
360
10706
102
}
102
{ACAD_REACTORS
330
10707
102
}
330
1F
100
AcDbEntity
  8
GM_Bemassung
100
AcDbDimension
280
     0
  2
*D77
 10
320.2532347909547
 20
421.430785188822
 30
0.0
 11
314.6792238769029
 21
441.460267442539
 31
0.0
 70
    32
 71
     5
 42
40.05896450743427
 73
     0
 74
     0
 75
     0
  3
Bemaßung
100
AcDbAlignedDimension
 13
339.3966840705257
 23
461.489749696256
 33
0.0
 14
339.9963030089038
 24
421.4307851888218
 34
0.0
 50
90.0
100
AcDbRotatedDimension
1001
AcadAnnotative
1000
AnnotativeData
1002
{
1070
     1
1070
     1
1002
}
  0
DIMENSION
  5
1070B
102
{ACAD_XDICTIONARY
360
1070C
102
}
102
{ACAD_REACTORS
330
1070D
102
}
330
1F
100
AcDbEntity
  8
GM_Bemassung
100
AcDbDimension
280
     0
  2
*D78
 10
111.5207830701274
 20
177.1649218343964
 30
0.0
 11
105.9467721560755
 21
240.2331634666138
 31
0.0
 70
    32
 71
     5
 42
126.1364832644348
 73
     0
 74
     0
 75
     0
  3
Bemaßung
100
AcDbAlignedDimension
 13
156.3109571819043
 23
303.3014050988312
 33
0.0
 14
137.5600283524502
 24
177.1649218343963
 34
0.0
 50
90.0
100
AcDbRotatedDimension
1001
AcadAnnotative
1000
AnnotativeData
1002
{
1070
     1
1070
     1
1002
}
  0
DIMENSION
  5
10711
102
{ACAD_XDICTIONARY
360
10712
102
}
102
{ACAD_REACTORS
330
10713
102
}
330
1F
100
AcDbEntity
  8
GM_Bemassung
100
AcDbDimension
280
     0
  2
*D79
 10
222.7600283524507
 20
157.677363174962
 30
0.0
 11
180.0100283524507
 21
163.2513740890138
 31
0.0
 70
    32
 71
     5
 42
85.5
 73
     0
 74
     0
 75
     0
  3
Bemaßung
100
AcDbAlignedDimension
 13
137.2600283524507
 23
177.4649218343961
 33
0.0
 14
222.7600283524507
 24
177.1649218343982
 34
0.0
100
AcDbRotatedDimension
1001
AcadAnnotative
1000
AnnotativeData
1002
{
1070
     1
1070
     1
1002
}
  0
DIMENSION
  5
10717
102
{ACAD_XDICTIONARY
360
10718
102
}
102
{ACAD_REACTORS
330
10719
102
}
330
1F
100
AcDbEntity
  8
GM_Bemassung
100
AcDbDimension
280
     0
  2
*D70
 10
399.4411158027929
 20
160.4703320724593
 30
0.0
 11
356.5411158027932
 21
166.0443429865111
 31
0.0
 70
    32
 71
     5
 42
85.79999999999927
 73
     0
 74
     0
 75
     0
  3
Bemaßung
100
AcDbAlignedDimension
 13
313.6411158027936
 23
180.4870913800944
 33
0.0
 14
399.4411158027929
 24
181.3370913800959
 34
0.0
100
AcDbRotatedDimension
1001
AcadAnnotative
1000
AnnotativeData
1002
{
1070
     1
1070
     1
1002
}
  0
DIMENSION
  5
1071D
102
{ACAD_XDICTIONARY
360
1071E
102
}
102
{ACAD_REACTORS
330
1071F
102
}
330
1F
100
AcDbEntity
  8
GM_Bemassung
100
AcDbDimension
280
     0
  2
*D71
 10
287.5620577440445
 20
293.8321726655608
 30
0.0
 11
282.0477330510022
 21
237.0096320228276
 31
0.0
 70
    32
 71
     5
 42
113.645081285466
 73
     0
 74
     0
 75
     0
  3
Bemaßung
100
AcDbAlignedDimension
 13
313.9411158027931
 23
180.1870913800946
 33
0.0
 14
313.6411158027938
 24
293.8321726655607
 34
0.0
 50
90.0
100
AcDbRotatedDimension
1001
AcadAnnotative
1000
AnnotativeData
1002
{
1070
     1
1070
     1
1002
}
  0
MTEXT
  5
10723
102
{ACAD_XDICTIONARY
360
10724
102
}
330
1F
100
AcDbEntity
  8
GM_Text1
100
AcDbMText
 10
120.0791588402899
 20
507.6763075304606
 30
0.0
 40
5.0
 41
75.25575789681716
 46
0.0
 71
     1
 72
     5
  1
Silikonprofil \PArt.Nr: 534220-00-80-033
  7
Arial
 73
     1
 44
1.0
1001
AcadAnnotative
1000
AnnotativeData
1002
{
1070
     1
1070
     1
1002
}
1001
ACAD
1000
ACAD_MTEXT_COLUMN_INFO_BEGIN
1070
    75
1070
     2
1070
    79
1070
     0
1070
    76
1070
     1
1070
    78
1070
     0
1070
    48
1040
75.25575789681716
1070
    49
1040
25.0
1070
    50
1070
     1
1040
0.0
1000
ACAD_MTEXT_COLUMN_INFO_END
  0
MTEXT
  5
10728
102
{ACAD_XDICTIONARY
360
10729
102
}
330
1F
100
AcDbEntity
  8
GM_Text1
100
AcDbMText
 10
218.6203270167171
 20
507.6763075304606
 30
0.0
 40
5.0
 41
75.25575789681716
 46
0.0
 71
     1
 72
     5
  1
Abweiserverbinder\PArt.Nr: 516001-26-01-001
  7
Arial
 73
     1
 44
1.0
1001
AcadAnnotative
1000
AnnotativeData
1002
{
1070
     1
1070
     1
1002
}
1001
ACAD
1000
ACAD_MTEXT_COLUMN_INFO_BEGIN
1070
    75
1070
     2
1070
    79
1070
     0
1070
    76
1070
     1
1070
    78
1070
     0
1070
    48
1040
75.25575789681716
1070
    49
1040
25.0
1070
    50
1070
     1
1040
0.0
1000
ACAD_MTEXT_COLUMN_INFO_END
  0
MTEXT
  5
1072D
102
{ACAD_XDICTIONARY
360
1072E
102
}
330
1F
100
AcDbEntity
  8
GM_Text1
100
AcDbMText
 10
318.2863895372866
 20
507.6763075304606
 30
0.0
 40
5.0
 41
75.25575789681716
 46
0.0
 71
     1
 72
     5
  1
Abweiserprofil\PArt.Nr: 504197-01-01-001
  7
Arial
 73
     1
 44
1.0
1001
AcadAnnotative
1000
AnnotativeData
1002
{
1070
     1
1070
     1
1002
}
1001
ACAD
1000
ACAD_MTEXT_COLUMN_INFO_BEGIN
1070
    75
1070
     2
1070
    79
1070
     0
1070
    76
1070
     1
1070
    78
1070
     0
1070
    48
1040
75.25575789681716
1070
    49
1040
25.0
1070
    50
1070
     1
1040
0.0
1000
ACAD_MTEXT_COLUMN_INFO_END
  0
MTEXT
  5
10732
102
{ACAD_XDICTIONARY
360
10733
102
}
330
1F
100
AcDbEntity
  8
GM_Text1
100
AcDbMText
 10
109.1481217522305
 20
340.9571054655608
 30
0.0
 40
5.0
 41
87.55353970535907
 46
0.0
 71
     1
 72
     5
  1
Abdeckprofil-Clips Aussen\PArt.Nr: 504198-00-01-001
  7
Arial
 73
     1
 44
1.0
1001
AcadAnnotative
1000
AnnotativeData
1002
{
1070
     1
1070
     1
1002
}
1001
ACAD
1000
ACAD_MTEXT_COLUMN_INFO_BEGIN
1070
    75
1070
     2
1070
    79
1070
     0
1070
    76
1070
     1
1070
    78
1070
     0
1070
    48
1040
87.55353970535907
1070
    49
1040
25.0
1070
    50
1070
     1
1040
0.0
1000
ACAD_MTEXT_COLUMN_INFO_END
  0
MTEXT
  5
10737
102
{ACAD_XDICTIONARY
360
10738
102
}
330
1F
100
AcDbEntity
  8
GM_Text1
100
AcDbMText
 10
283.4693814937564
 20
340.9571054655608
 30
0.0
 40
5.0
 41
116.9315520987675
 46
0.0
 71
     1
 72
     5
  1
Abdeckprofil-Clips Aussen für Abweiserprofil\PArt.Nr: 504198-01-01-001
  7
Arial
 73
     1
 44
1.0
1001
AcadAnnotative
1000
AnnotativeData
1002
{
1070
     1
1070
     1
1002
}
1001
ACAD
1000
ACAD_MTEXT_COLUMN_INFO_BEGIN
1070
    75
1070
     2
1070
    79
1070
     0
1070
    76
1070
     1
1070
    78
1070
     0
1070
    48
1040
116.9315520987675
1070
    49
1040
25.0
1070
    50
1070
     1
1040
0.0
1000
ACAD_MTEXT_COLUMN_INFO_END
  0
ENDSEC
  0
SECTION
  2
OBJECTS
  0
DICTIONARY
  5
C
330
0
100
AcDbDictionary
281
     1
  3
ACAD_CIP_PREVIOUS_PRODUCT_INFO
350
AB5D
  3
ACAD_COLOR
350
36A
  3
ACAD_DETAILVIEWSTYLE
350
AB4E
  3
ACAD_FIELDLIST
350
FC86
  3
ACAD_GROUP
350
D
  3
ACAD_LAYOUT
350
1A
  3
ACAD_MATERIAL
350
369
  3
ACAD_MLEADERSTYLE
350
634
  3
ACAD_MLINESTYLE
350
17
  3
ACAD_PLOTSETTINGS
350
19
  3
ACAD_PLOTSTYLENAME
350
E
  3
ACAD_SCALELIST
350
612
  3
ACAD_SECTIONVIEWSTYLE
350
AB4C
  3
ACAD_TABLESTYLE
350
471
  3
ACAD_VISUALSTYLE
350
601
  3
AcAec
350
9CE5
  3
ACDB_RECOMPOSE_DATA
350
1083C
  3
AcDbVariableDictionary
350
8F
  3
AcDsDecomposeData
350
10842
  3
AEC_PROPERTY_SET_DEFS
350
4E7B
  3
ASE_INDEX_DICTIONARY
350
998B
  0
DICTIONARY
  5
618C
330
8
100
AcDbDictionary
280
     1
281
     1
  0
DICTIONARY
  5
4F5
330
2
100
AcDbDictionary
280
     1
281
     1
  3
ACAD_LAYERFILTERS
360
A943
  3
ACAD_LAYERSTATES
360
5E1
  3
ACLYDICTIONARY
360
A942
  0
DICTIONARY
  5
4D20
330
10
100
AcDbDictionary
280
     1
281
     1
  3
ADSK_XREC_LAYER_RECONCILED
360
107EA
  0
DICTIONARY
  5
4D46
330
38D
100
AcDbDictionary
280
     1
281
     1
  3
ADSK_XREC_LAYER_RECONCILED
360
107EB
  0
DICTIONARY
  5
4D4C
330
390
100
AcDbDictionary
280
     1
281
     1
  3
ADSK_XREC_LAYER_RECONCILED
360
107EC
  0
DICTIONARY
  5
5F85
330
5D41
100
AcDbDictionary
280
     1
281
     1
  3
ADSK_XREC_LAYER_RECONCILED
360
107ED
  0
DICTIONARY
  5
5FE9
330
5EE3
100
AcDbDictionary
280
     1
281
     1
  3
ADSK_XREC_LAYER_RECONCILED
360
107EE
  0
DICTIONARY
  5
107EF
330
B139
100
AcDbDictionary
280
     1
281
     1
  3
ADSK_XREC_LAYER_RECONCILED
360
107F0
  0
DICTIONARY
  5
105C0
330
105BF
100
AcDbDictionary
280
     1
281
     1
  3
ADSK_XREC_LAYER_RECONCILED
360
107F1
  0
DICTIONARY
  5
A4
330
1F
100
AcDbDictionary
280
     1
281
     1
  3
ACAD_LAYOUTSELFREF
360
16E
  3
ACAD_SORTENTS
360
3E20
  0
DICTIONARY
  5
106E8
330
106E7
100
AcDbDictionary
280
     1
281
     1
  3
ACAD_DIMASSOC
360
106E9
  3
AcDbContextDataManager
360
106EA
  0
DICTIONARY
  5
106EE
330
106ED
100
AcDbDictionary
280
     1
281
     1
  3
ACAD_DIMASSOC
360
106EF
  3
AcDbContextDataManager
360
106F0
  0
DICTIONARY
  5
106F4
330
106F3
100
AcDbDictionary
280
     1
281
     1
  3
ACAD_DIMASSOC
360
106F5
  3
AcDbContextDataManager
360
106F6
  0
DICTIONARY
  5
106FA
330
106F9
100
AcDbDictionary
280
     1
281
     1
  3
ACAD_DIMASSOC
360
106FB
  3
AcDbContextDataManager
360
106FC
  0
DICTIONARY
  5
10700
330
106FF
100
AcDbDictionary
280
     1
281
     1
  3
ACAD_DIMASSOC
360
10701
  3
AcDbContextDataManager
360
10702
  0
DICTIONARY
  5
10706
330
10705
100
AcDbDictionary
280
     1
281
     1
  3
ACAD_DIMASSOC
360
10707
  3
AcDbContextDataManager
360
10708
  0
DICTIONARY
  5
1070C
330
1070B
100
AcDbDictionary
280
     1
281
     1
  3
ACAD_DIMASSOC
360
1070D
  3
AcDbContextDataManager
360
1070E
  0
DICTIONARY
  5
10712
330
10711
100
AcDbDictionary
280
     1
281
     1
  3
ACAD_DIMASSOC
360
10713
  3
AcDbContextDataManager
360
10714
  0
DICTIONARY
  5
10718
330
10717
100
AcDbDictionary
280
     1
281
     1
  3
ACAD_DIMASSOC
360
10719
  3
AcDbContextDataManager
360
1071A
  0
DICTIONARY
  5
1071E
330
1071D
100
AcDbDictionary
280
     1
281
     1
  3
ACAD_DIMASSOC
360
1071F
  3
AcDbContextDataManager
360
10720
  0
DICTIONARY
  5
10724
330
10723
100
AcDbDictionary
280
     1
281
     1
  3
AcDbContextDataManager
360
10725
  0
DICTIONARY
  5
10729
330
10728
100
AcDbDictionary
280
     1
281
     1
  3
AcDbContextDataManager
360
1072A
  0
DICTIONARY
  5
1072E
330
1072D
100
AcDbDictionary
280
     1
281
     1
  3
AcDbContextDataManager
360
1072F
  0
DICTIONARY
  5
10733
330
10732
100
AcDbDictionary
280
     1
281
     1
  3
AcDbContextDataManager
360
10734
  0
DICTIONARY
  5
10738
330
10737
100
AcDbDictionary
280
     1
281
     1
  3
AcDbContextDataManager
360
10739
  0
XRECORD
  5
AB5D
102
{ACAD_REACTORS
330
C
102
}
330
C
100
AcDbXrecord
280
     1
300
ACD
300
2019
300
87084ACD_2019_0F
  0
DICTIONARY
  5
36A
102
{ACAD_REACTORS
330
C
102
}
330
C
100
AcDbDictionary
281
     1
  0
DICTIONARY
  5
AB4E
102
{ACAD_REACTORS
330
C
102
}
330
C
100
AcDbDictionary
281
     1
  3
Imperial24
350
B1A1
  3
Metric50
350
AB4F
  0
FIELDLIST
  5
FC86
102
{ACAD_REACTORS
330
C
102
}
330
C
100
AcDbIdSet
 90
      100
330
F2C9
330
F2CA
330
F2CE
330
F2CF
330
ECB1
330
ECB2
330
ECB8
330
ECB9
330
E8EE
330
E8EF
330
E8F5
330
E8F6
330
E917
330
E918
330
E52B
330
E52C
330
E532
330
E533
330
E554
330
E555
330
E169
330
E16A
330
E170
330
E171
330
E191
330
E192
330
DDA1
330
DDA2
330
DDA8
330
DDA9
330
DDCF
330
DDD0
330
D9E0
330
D9E6
330
D9E7
330
DA07
330
DA08
330
D9DF
330
D61D
330
D61E
330
D624
330
D625
330
D645
330
D646
330
F66C
330
F66D
330
F673
330
F674
330
F2B1
330
F2B2
330
CE95
330
CE96
330
CE9C
330
CE9D
330
D259
330
D25A
330
D260
330
D261
330
D283
330
D284
330
CEBF
330
CEC0
330
CAD0
330
CAD1
330
CAD7
330
CAD8
330
CAFA
330
CAFB
330
C382
330
C383
330
C387
330
C388
330
C3B3
330
C3B4
330
BFBA
330
BFBB
330
BFE6
330
BFE7
330
BC01
330
BC02
330
BC39
330
BC3A
330
BC3E
330
BC3F
330
B841
330
B842
330
B879
330
B87A
330
B87E
330
B87F
330
B3A7
330
B3A8
330
B3BF
330
B3C0
330
B3C4
330
B3C5
330
10688
330
10689
330
105C9
330
105CA
100
AcDbFieldList
  0
DICTIONARY
  5
D
102
{ACAD_REACTORS
330
C
102
}
330
C
100
AcDbDictionary
281
     1
  0
DICTIONARY
  5
1A
102
{ACAD_REACTORS
330
C
102
}
330
C
100
AcDbDictionary
281
     1
  3
Layout1
350
107E6
  3
Model
350
22
  0
DICTIONARY
  5
369
102
{ACAD_REACTORS
330
C
102
}
330
C
100
AcDbDictionary
281
     1
  3
ByBlock
350
5F1
  3
ByLayer
350
5E9
  3
Global
350
5F9
  0
DICTIONARY
  5
634
102
{ACAD_REACTORS
330
C
102
}
330
C
100
AcDbDictionary
281
     1
  3
Beschriftung
350
4A13
  3
Standard
350
635
  0
DICTIONARY
  5
17
102
{ACAD_REACTORS
330
C
102
}
330
C
100
AcDbDictionary
281
     1
  3
Standard
350
18
  0
DICTIONARY
  5
19
102
{ACAD_REACTORS
330
C
102
}
330
C
100
AcDbDictionary
281
     1
  3
A0 - Plotter - Farbe
350
583
  3
A0 - Plotter - Schwarz Weiss
350
57A
  3
A1 - Plotter - Farbe
350
571
  3
A1 - Plotter - Schwarz Weiss
350
568
  3
A2 - Plotter - Farbe
350
536
  3
A2 - Plotter - Schwarz Weiss
350
53F
  3
A3 - HP Deskjet - Farbe
350
5C2
  3
A3 - HP Deskjet - Farbe - Schnelldruck
350
5DB
  3
A3 - Plotter - Farbe
350
AC7F
  3
A3 - Plotter - Schwarz Weiss
350
AC80
  3
A4 - HP Deskjet - Farbe
350
51B
  3
A4 - HP Laserjet - Schwarz Weiss
350
512
  3
A4 - Plotter
350
AC81
  3
A4 - Plotter - Farbe
350
AC82
  3
A4 - Plotter - Schwarz Weiss
350
AC83
  3
Ben1 - Plotter - Farbe
350
595
  3
Ben1 - Plotter - Schwarz Weiss
350
58C
  3
Ben2 - Plotter - Farbe
350
59E
  3
Ben2 - Plotter - Schwarz Weiss
350
5A7
  3
Ben3 - Plotter - Farbe
350
5B9
  3
Ben3 - Plotter - Schwarz Weiss
350
5B0
  0
ACDBDICTIONARYWDFLT
  5
E
102
{ACAD_REACTORS
330
C
102
}
330
C
100
AcDbDictionary
281
     1
  3
Normal
350
F
100
AcDbDictionaryWithDefault
340
F
  0
DICTIONARY
  5
612
102
{ACAD_REACTORS
330
C
102
}
330
C
100
AcDbDictionary
281
     1
  3
A0
350
82EF
  3
A1
350
613
  3
A2
350
82F0
  3
A3
350
82F1
  3
A4
350
82F2
  3
A5
350
82F3
  3
A6
350
82F4
  3
A7
350
82F5
  0
DICTIONARY
  5
AB4C
102
{ACAD_REACTORS
330
C
102
}
330
C
100
AcDbDictionary
281
     1
  3
Imperial24
350
B19F
  3
Metric50
350
AB4D
  0
DICTIONARY
  5
471
102
{ACAD_REACTORS
330
C
102
}
330
C
100
AcDbDictionary
281
     1
  3
Standard
350
472
  0
DICTIONARY
  5
601
102
{ACAD_REACTORS
330
C
102
}
330
C
100
AcDbDictionary
281
     1
  3
2dWireframe
350
607
  3
3D Hidden
350
609
  3
3dWireframe
350
608
  3
Basic
350
606
  3
Brighten
350
60D
  3
ColorChange
350
611
  3
Conceptual
350
60A
  3
Dim
350
60C
  3
EdgeColorOff
350
A4BB
  3
Facepattern
350
610
  3
Flat
350
602
  3
FlatWithEdges
350
603
  3
Gouraud
350
604
  3
GouraudWithEdges
350
605
  3
Hidden
350
AB46
  3
JitterOff
350
A4B9
  3
Linepattern
350
60F
  3
OverhangOff
350
A4BA
  3
Realistic
350
60B
  3
Shaded
350
AB4B
  3
Shaded with edges
350
AB4A
  3
Shades of Gray
350
AB47
  3
Sketchy
350
AB48
  3
Thicken
350
60E
  3
Wireframe
350
AB45
  3
X-Ray
350
AB49
  0
DICTIONARY
  5
9CE5
102
{ACAD_REACTORS
330
C
102
}
330
C
100
AcDbDictionary
280
     1
281
     1
  0
XRECORD
  5
1083C
102
{ACAD_REACTORS
330
C
102
}
330
C
100
AcDbXrecord
280
     1
 90
        1
330
472
330
10723
330
10728
330
1072D
330
10732
330
10737
  0
DICTIONARY
  5
8F
102
{ACAD_REACTORS
330
C
102
}
330
C
100
AcDbDictionary
281
     1
  3
ANNOALLVISIBLE
350
64A
  3
CANNOSCALE
350
64B
  3
CMLEADERSTYLE
350
648
  3
CTABLESTYLE
350
49D
  3
CVIEWDETAILSTYLE
350
AB68
  3
CVIEWSECTIONSTYLE
350
AB69
  3
DIMASSOC
350
92
  3
HIDETEXT
350
91
  3
INDEXCTL
350
61CD
  3
LAYEREVAL
350
8357
  3
LAYERNOTIFY
350
8358
  3
LIGHTINGUNITS
350
64C
  3
MSLTSCALE
350
649
  3
SORTENTS
350
90
  0
DICTIONARY
  5
10842
102
{ACAD_REACTORS
330
C
102
}
330
C
100
AcDbDictionary
281
     1
  3
AcDsRecords
350
10844
  3
AcDsSchemas
350
10843
1001
ACAD
1070
     2
  0
DICTIONARY
  5
4E7B
102
{ACAD_REACTORS
330
C
102
}
330
C
100
AcDbDictionary
281
     1
  0
DICTIONARY
  5
998B
102
{ACAD_REACTORS
330
C
102
}
330
C
100
AcDbDictionary
281
     1
  3
ASEBlockHierarchyIndexRecord
350
998C
1001
DCO15
1040
1665989642.712
  0
DICTIONARY
  5
A943
102
{ACAD_REACTORS
330
4F5
102
}
330
4F5
100
AcDbDictionary
281
     1
  0
DICTIONARY
  5
5E1
102
{ACAD_REACTORS
330
4F5
102
}
330
4F5
100
AcDbDictionary
281
     1
  0
DICTIONARY
  5
A942
102
{ACAD_REACTORS
330
4F5
102
}
330
4F5
100
AcDbDictionary
281
     1
1001
ACAD
1000
<All
  0
XRECORD
  5
107EA
102
{ACAD_REACTORS
330
4D20
102
}
330
4D20
100
AcDbXrecord
280
     1
290
     1
  0
XRECORD
  5
107EB
102
{ACAD_REACTORS
330
4D46
102
}
330
4D46
100
AcDbXrecord
280
     1
290
     1
  0
XRECORD
  5
107EC
102
{ACAD_REACTORS
330
4D4C
102
}
330
4D4C
100
AcDbXrecord
280
     1
290
     1
  0
XRECORD
  5
107ED
102
{ACAD_REACTORS
330
5F85
102
}
330
5F85
100
AcDbXrecord
280
     1
290
     1
  0
XRECORD
  5
107EE
102
{ACAD_REACTORS
330
5FE9
102
}
330
5FE9
100
AcDbXrecord
280
     1
290
     1
  0
XRECORD
  5
107F0
102
{ACAD_REACTORS
330
107EF
102
}
330
107EF
100
AcDbXrecord
280
     1
290
     1
  0
XRECORD
  5
107F1
102
{ACAD_REACTORS
330
105C0
102
}
330
105C0
100
AcDbXrecord
280
     1
290
     1
  0
XRECORD
  5
16E
102
{ACAD_REACTORS
330
A4
102
}
330
A4
100
AcDbXrecord
280
     1
340
1F
  0
SORTENTSTABLE
  5
3E20
102
{ACAD_REACTORS
330
A4
102
}
330
A4
100
AcDbSortentsTable
330
1F
  0
DIMASSOC
  5
106E9
102
{ACAD_REACTORS
330
106E8
102
}
330
106E8
100
AcDbDimAssoc
330
106E7
 90
        3
 70
     0
 71
     0
  1
AcDbOsnapPointRef
 72
     6
331
106E4
331
10545
 73
     2
 91
       11
 40
1.0
 10
0.0
 20
0.0
 30
0.0
332
106E4
332
10545
 74
     2
 92
       12
 75
     0
  1
AcDbOsnapPointRef
 72
     8
331
106E4
331
10545
 73
     2
 91
        6
 40
6.81110388181064
 10
0.0
 20
0.0
 30
0.0
 75
     1
  1
AcDbOsnapPointRef
 72
     6
331
106E4
331
10545
 73
     2
 91
       11
 40
1.0
 10
0.0
 20
0.0
 30
0.0
332
106E4
332
10545
 74
     2
 92
       12
 75
     0
  0
DICTIONARY
  5
106EA
102
{ACAD_REACTORS
330
106E8
102
}
330
106E8
100
AcDbDictionary
281
     1
  3
ACDB_ANNOTATIONSCALES
350
106EB
  0
DIMASSOC
  5
106EF
102
{ACAD_REACTORS
330
106EE
102
}
330
106EE
100
AcDbDimAssoc
330
106ED
 90
        3
 70
     0
 71
     0
  1
AcDbOsnapPointRef
 72
     8
331
106E4
331
10545
 73
     2
 91
        6
 40
7.855098861974397
 10
0.0
 20
0.0
 30
0.0
 75
     1
  1
AcDbOsnapPointRef
 72
     0
 40
0.0
 10
3874.225108936622
 20
-221.3052532301472
 30
0.0
 75
     0
  1
AcDbOsnapPointRef
 72
    13
331
106E4
331
10545
 73
     2
 91
       21
 40
4.921828490622581
 10
0.0
 20
0.0
 30
2.000000000000000E+50
 75
     0
  0
DICTIONARY
  5
106F0
102
{ACAD_REACTORS
330
106EE
102
}
330
106EE
100
AcDbDictionary
281
     1
  3
ACDB_ANNOTATIONSCALES
350
106F1
  0
DIMASSOC
  5
106F5
102
{ACAD_REACTORS
330
106F4
102
}
330
106F4
100
AcDbDimAssoc
330
106F3
 90
        1
 70
     0
 71
     0
  1
AcDbOsnapPointRef
 72
     1
331
10696
 73
     2
 91
        8
 40
0.9999999999999998
 10
0.0
 20
0.0
 30
2.000000000000000E+50
 75
     0
  0
DICTIONARY
  5
106F6
102
{ACAD_REACTORS
330
106F4
102
}
330
106F4
100
AcDbDictionary
281
     1
  3
ACDB_ANNOTATIONSCALES
350
106F7
  0
DIMASSOC
  5
106FB
102
{ACAD_REACTORS
330
106FA
102
}
330
106FA
100
AcDbDimAssoc
330
106F9
 90
        2
 70
     0
 71
     0
  1
AcDbOsnapPointRef
 72
     1
331
10696
 73
     2
 91
        3
 40
1.0
 10
0.0
 20
0.0
 30
2.000000000000000E+50
 75
     0
  0
DICTIONARY
  5
106FC
102
{ACAD_REACTORS
330
106FA
102
}
330
106FA
100
AcDbDictionary
281
     1
  3
ACDB_ANNOTATIONSCALES
350
106FD
  0
DIMASSOC
  5
10701
102
{ACAD_REACTORS
330
10700
102
}
330
10700
100
AcDbDimAssoc
330
106FF
 90
        2
 70
     0
 71
     0
  1
AcDbOsnapPointRef
 72
     1
331
106BE
 73
     2
 91
        0
 40
1.0
 10
0.0
 20
0.0
 30
2.000000000000000E+50
 75
     0
  0
DICTIONARY
  5
10702
102
{ACAD_REACTORS
330
10700
102
}
330
10700
100
AcDbDictionary
281
     1
  3
ACDB_ANNOTATIONSCALES
350
10703
  0
DIMASSOC
  5
10707
102
{ACAD_REACTORS
330
10706
102
}
330
10706
100
AcDbDimAssoc
330
10705
 90
        2
 70
     0
 71
     0
  1
AcDbOsnapPointRef
 72
     2
331
106DB
 73
     2
 91
        7
 40
0.5
 10
0.0
 20
0.0
 30
0.0
 75
     0
  0
DICTIONARY
  5
10708
102
{ACAD_REACTORS
330
10706
102
}
330
10706
100
AcDbDictionary
281
     1
  3
ACDB_ANNOTATIONSCALES
350
10709
  0
DIMASSOC
  5
1070D
102
{ACAD_REACTORS
330
1070C
102
}
330
1070C
100
AcDbDimAssoc
330
1070B
 90
        3
 70
     0
 71
     0
  1
AcDbOsnapPointRef
 72
     2
331
10695
 73
     2
 91
       32
 40
2.072218067702875
 10
0.0
 20
0.0
 30
0.0
 75
     0
  1
AcDbOsnapPointRef
 72
     6
331
10695
 73
     2
 91
       21
 40
0.9999999999999946
 10
0.0
 20
0.0
 30
0.0
332
10695
 74
     2
 92
       22
 75
     0
  0
DICTIONARY
  5
1070E
102
{ACAD_REACTORS
330
1070C
102
}
330
1070C
100
AcDbDictionary
281
     1
  3
ACDB_ANNOTATIONSCALES
350
1070F
  0
DIMASSOC
  5
10713
102
{ACAD_REACTORS
330
10712
102
}
330
10712
100
AcDbDimAssoc
330
10711
 90
        3
 70
     0
 71
     0
  1
AcDbOsnapPointRef
 72
     6
331
10695
 73
     2
 91
       23
 40
0.0
 10
0.0
 20
0.0
 30
0.0
332
10695
 74
     2
 92
       22
 75
     0
  1
AcDbOsnapPointRef
 72
     1
331
10695
 73
     2
 91
       20
 40
4.712388980386204
 10
0.0
 20
0.0
 30
2.000000000000000E+50
 75
     0
  0
DICTIONARY
  5
10714
102
{ACAD_REACTORS
330
10712
102
}
330
10712
100
AcDbDictionary
281
     1
  3
ACDB_ANNOTATIONSCALES
350
10715
  0
DIMASSOC
  5
10719
102
{ACAD_REACTORS
330
10718
102
}
330
10718
100
AcDbDimAssoc
330
10717
 90
        3
 70
     0
 71
     0
  1
AcDbOsnapPointRef
 72
     1
331
106E6
 73
     2
 91
       30
 40
3.141592653589035
 10
0.0
 20
0.0
 30
2.000000000000000E+50
 75
     0
  1
AcDbOsnapPointRef
 72
     2
331
106E6
 73
     2
 91
       27
 40
0.5
 10
0.0
 20
0.0
 30
0.0
 75
     0
  0
DICTIONARY
  5
1071A
102
{ACAD_REACTORS
330
10718
102
}
330
10718
100
AcDbDictionary
281
     1
  3
ACDB_ANNOTATIONSCALES
350
1071B
  0
DIMASSOC
  5
1071F
102
{ACAD_REACTORS
330
1071E
102
}
330
1071E
100
AcDbDimAssoc
330
1071D
 90
        3
 70
     0
 71
     0
  1
AcDbOsnapPointRef
 72
     6
331
106E6
 73
     2
 91
       29
 40
1.0
 10
0.0
 20
0.0
 30
0.0
332
106E6
 74
     2
 92
       30
 75
     0
  1
AcDbOsnapPointRef
 72
     1
331
106E6
 73
     2
 91
       31
 40
1.0
 10
0.0
 20
0.0
 30
2.000000000000000E+50
 75
     0
  0
DICTIONARY
  5
10720
102
{ACAD_REACTORS
330
1071E
102
}
330
1071E
100
AcDbDictionary
281
     1
  3
ACDB_ANNOTATIONSCALES
350
10721
  0
DICTIONARY
  5
10725
102
{ACAD_REACTORS
330
10724
102
}
330
10724
100
AcDbDictionary
281
     1
  3
ACDB_ANNOTATIONSCALES
350
10726
  0
DICTIONARY
  5
1072A
102
{ACAD_REACTORS
330
10729
102
}
330
10729
100
AcDbDictionary
281
     1
  3
ACDB_ANNOTATIONSCALES
350
1072B
  0
DICTIONARY
  5
1072F
102
{ACAD_REACTORS
330
1072E
102
}
330
1072E
100
AcDbDictionary
281
     1
  3
ACDB_ANNOTATIONSCALES
350
10730
  0
DICTIONARY
  5
10734
102
{ACAD_REACTORS
330
10733
102
}
330
10733
100
AcDbDictionary
281
     1
  3
ACDB_ANNOTATIONSCALES
350
10735
  0
DICTIONARY
  5
10739
102
{ACAD_REACTORS
330
10738
102
}
330
10738
100
AcDbDictionary
281
     1
  3
ACDB_ANNOTATIONSCALES
350
1073A
  0
ACDBDETAILVIEWSTYLE
  5
B1A1
102
{ACAD_XDICTIONARY
360
1087F
102
}
102
{ACAD_REACTORS
330
AB4E
102
}
330
AB4E
100
AcDbModelDocViewStyle
 70
     0
  3
Imperial24
290
     0
100
AcDbDetailViewStyle
 70
     0
 71
     0
 90
        3
 71
     1
340
11
 62
   256
 40
0.24
340
0
 62
   256
 40
0.24
300

 40
0.36
280
     3
 71
     2
340
16
 90
       25
 62
   256
 71
     3
340
11
 62
   256
 40
0.24
 90
        1
 40
0.75
 90
        1
300
%<\AcVar ViewType \f "%tc1">% %<\AcVar ViewDetailId>%\PVARIA %<\AcVar ViewScale \f "%sn">%
 71
     4
340
16
 90
       25
 62
   256
340
16
 90
       25
 62
   256
280
     0
  0
ACDBDETAILVIEWSTYLE
  5
AB4F
102
{ACAD_XDICTIONARY
360
1087B
102
}
102
{ACAD_REACTORS
330
AB4E
102
}
330
AB4E
100
AcDbModelDocViewStyle
 70
     0
  3
Metric50
290
     0
100
AcDbDetailViewStyle
 70
     0
 71
     0
 90
        3
 71
     1
340
11
 62
   256
 40
5.0
340
0
 62
   256
 40
5.0
300

 40
0.0
280
     1
 71
     2
340
16
 90
       25
 62
   256
 71
     3
340
11
 62
   256
 40
5.0
 90
        0
 40
15.0
 90
        1
300
%<\AcVar ViewDetailId>% (%<\AcVar ViewScale \f "%sn">%)
 71
     4
340
16
 90
       25
 62
   256
340
16
 90
       25
 62
   256
280
     0
  0
LAYOUT
  5
107E6
102
{ACAD_REACTORS
330
1A
102
}
330
1A
100
AcDbPlotSettings
  1

  2
C:\Program Files\Autodesk\AutoCAD 2019\Anpassung_2019\Plotters\DWG To PDF.pc3
  4

  6

 40
0.0
 41
0.0
 42
0.0
 43
0.0
 44
0.0
 45
0.0
 46
0.0
 47
0.0
 48
0.0
 49
0.0
140
0.0
141
0.0
142
1.0
143
1.0
 70
   688
 72
     0
 73
     0
 74
     5
  7

 75
    16
147
1.0
 76
     0
 77
     2
 78
   300
148
0.0
149
0.0
100
AcDbLayout
  1
Layout1
 70
     1
 71
     1
 10
0.0
 20
0.0
 11
12.0
 21
9.0
 12
0.0
 22
0.0
 32
0.0
 14
0.0
 24
0.0
 34
0.0
 15
0.0
 25
0.0
 35
0.0
146
0.0
 13
0.0
 23
0.0
 33
0.0
 16
1.0
 26
0.0
 36
0.0
 17
0.0
 27
1.0
 37
0.0
 76
     0
330
107E5
  0
LAYOUT
  5
22
102
{ACAD_XDICTIONARY
360
A4D3
102
}
102
{ACAD_REACTORS
330
1A
102
}
330
1A
100
AcDbPlotSettings
  1

  2
DWG To PDF.pc3
  4
ISO_A4_(210.00_x_297.00_MM)
  6

 40
0.0
 41
0.0
 42
0.0
 43
0.0
 44
210.0
 45
297.0
 46
4.025396391800313
 47
5.961521744722631
 48
0.0
 49
0.0
140
201.9492072163994
141
285.0769565105547
142
1.0
143
1.0
 70
 11940
 72
     1
 73
     0
 74
     4
  7
Schwarz Weiss dünn.ctb
 75
     0
147
1.005574871023357
 76
     0
 77
     2
 78
   300
148
0.0
149
0.0
100
AcDbLayout
  1
Model
 70
     1
 71
     0
 10
0.0
 20
0.0
 11
12.0
 21
9.0
 12
0.0
 22
0.0
 32
0.0
 14
0.0
 24
0.0
 34
0.0
 15
0.0
 25
0.0
 35
0.0
146
0.0
 13
0.0
 23
0.0
 33
0.0
 16
1.0
 26
0.0
 36
0.0
 17
0.0
 27
1.0
 37
0.0
 76
     0
330
1F
331
5E7
1001
ACAD_PSEXT
1000
DWG To PDF.pc3
1000
DWG To PDF
1000
Datei
1000

1070
     0
  0
MATERIAL
  5
5F1
102
{ACAD_XDICTIONARY
360
5F2
102
}
102
{ACAD_REACTORS
330
369
102
}
330
369
100
AcDbMaterial
  1
ByBlock
 72
     0
 43
0.0008202099737533
 43
0.0
 43
0.0
 43
0.0
 43
0.0
 43
0.0008202099737533
 43
0.0
 43
0.0
 43
0.0
 43
0.0
 43
1.0
 43
0.0
 43
0.0
 43
0.0
 43
0.0
 43
1.0
 77
     0
 47
0.0008202099737533
 47
0.0
 47
0.0
 47
0.0
 47
0.0
 47
0.0008202099737533
 47
0.0
 47
0.0
 47
0.0
 47
0.0
 47
1.0
 47
0.0
 47
0.0
 47
0.0
 47
0.0
 47
1.0
171
     0
 49
0.0008202099737533
 49
0.0
 49
0.0
 49
0.0
 49
0.0
 49
0.0008202099737533
 49
0.0
 49
0.0
 49
0.0
 49
0.0
 49
1.0
 49
0.0
 49
0.0
 49
0.0
 49
0.0
 49
1.0
175
     0
142
0.0008202099737533
142
0.0
142
0.0
142
0.0
142
0.0
142
0.0008202099737533
142
0.0
142
0.0
142
0.0
142
0.0
142
1.0
142
0.0
142
0.0
142
0.0
142
0.0
142
1.0
179
     0
144
0.0008202099737533
144
0.0
144
0.0
144
0.0
144
0.0
144
0.0008202099737533
144
0.0
144
0.0
144
0.0
144
0.0
144
1.0
144
0.0
144
0.0
144
0.0
144
0.0
144
1.0
147
0.0008202099737533
147
0.0
147
0.0
147
0.0
147
0.0
147
0.0008202099737533
147
0.0
147
0.0
147
0.0
147
0.0
147
1.0
147
0.0
147
0.0
147
0.0
147
0.0
147
1.0
  0
MATERIAL
  5
5E9
102
{ACAD_XDICTIONARY
360
5EA
102
}
102
{ACAD_REACTORS
330
369
102
}
330
369
100
AcDbMaterial
  1
ByLayer
 72
     0
 43
0.0008202099737533
 43
0.0
 43
0.0
 43
0.0
 43
0.0
 43
0.0008202099737533
 43
0.0
 43
0.0
 43
0.0
 43
0.0
 43
1.0
 43
0.0
 43
0.0
 43
0.0
 43
0.0
 43
1.0
 77
     0
 47
0.0008202099737533
 47
0.0
 47
0.0
 47
0.0
 47
0.0
 47
0.0008202099737533
 47
0.0
 47
0.0
 47
0.0
 47
0.0
 47
1.0
 47
0.0
 47
0.0
 47
0.0
 47
0.0
 47
1.0
171
     0
 49
0.0008202099737533
 49
0.0
 49
0.0
 49
0.0
 49
0.0
 49
0.0008202099737533
 49
0.0
 49
0.0
 49
0.0
 49
0.0
 49
1.0
 49
0.0
 49
0.0
 49
0.0
 49
0.0
 49
1.0
175
     0
142
0.0008202099737533
142
0.0
142
0.0
142
0.0
142
0.0
142
0.0008202099737533
142
0.0
142
0.0
142
0.0
142
0.0
142
1.0
142
0.0
142
0.0
142
0.0
142
0.0
142
1.0
179
     0
144
0.0008202099737533
144
0.0
144
0.0
144
0.0
144
0.0
144
0.0008202099737533
144
0.0
144
0.0
144
0.0
144
0.0
144
1.0
144
0.0
144
0.0
144
0.0
144
0.0
144
1.0
147
0.0008202099737533
147
0.0
147
0.0
147
0.0
147
0.0
147
0.0008202099737533
147
0.0
147
0.0
147
0.0
147
0.0
147
1.0
147
0.0
147
0.0
147
0.0
147
0.0
147
1.0
  0
MATERIAL
  5
5F9
102
{ACAD_XDICTIONARY
360
5FA
102
}
102
{ACAD_REACTORS
330
369
102
}
330
369
100
AcDbMaterial
  1
Global
 72
     0
 43
0.0008202099737533
 43
0.0
 43
0.0
 43
0.0
 43
0.0
 43
0.0008202099737533
 43
0.0
 43
0.0
 43
0.0
 43
0.0
 43
1.0
 43
0.0
 43
0.0
 43
0.0
 43
0.0
 43
1.0
 77
     0
 47
0.0008202099737533
 47
0.0
 47
0.0
 47
0.0
 47
0.0
 47
0.0008202099737533
 47
0.0
 47
0.0
 47
0.0
 47
0.0
 47
1.0
 47
0.0
 47
0.0
 47
0.0
 47
0.0
 47
1.0
171
     0
 49
0.0008202099737533
 49
0.0
 49
0.0
 49
0.0
 49
0.0
 49
0.0008202099737533
 49
0.0
 49
0.0
 49
0.0
 49
0.0
 49
1.0
 49
0.0
 49
0.0
 49
0.0
 49
0.0
 49
1.0
175
     0
142
0.0008202099737533
142
0.0
142
0.0
142
0.0
142
0.0
142
0.0008202099737533
142
0.0
142
0.0
142
0.0
142
0.0
142
1.0
142
0.0
142
0.0
142
0.0
142
0.0
142
1.0
179
     0
144
0.0008202099737533
144
0.0
144
0.0
144
0.0
144
0.0
144
0.0008202099737533
144
0.0
144
0.0
144
0.0
144
0.0
144
1.0
144
0.0
144
0.0
144
0.0
144
0.0
144
1.0
147
0.0008202099737533
147
0.0
147
0.0
147
0.0
147
0.0
147
0.0008202099737533
147
0.0
147
0.0
147
0.0
147
0.0
147
1.0
147
0.0
147
0.0
147
0.0
147
0.0
147
1.0
  0
MLEADERSTYLE
  5
4A13
102
{ACAD_REACTORS
330
634
102
}
330
634
100
AcDbMLeaderStyle
179
     2
170
     2
171
     1
172
     0
 90
        2
 40
0.0
 41
0.0
173
     1
 91
-1023410169
340
16
 92
       -1
290
     1
 42
2.0
291
     1
 43
2.0
  3
Standard
 44
2.5
300

342
11
174
     1
178
     1
175
     1
176
     0
 93
-1023410169
 45
3.5
292
     0
297
     0
 46
4.0
 94
-1056964608
 47
1.0
 49
1.0
140
1.0
293
     1
141
0.0
294
     1
177
     0
142
1.0
295
     0
296
     1
143
0.0
271
     0
272
     9
273
     9
  0
MLEADERSTYLE
  5
635
102
{ACAD_REACTORS
330
634
102
}
330
634
100
AcDbMLeaderStyle
179
     2
170
     2
171
     1
172
     0
 90
        2
 40
0.0
 41
0.0
173
     1
 91
-1023410169
340
14
 92
       -2
290
     1
 42
2.0
291
     1
 43
2.0
  3
Standard
 44
2.5
300

342
11
174
     1
178
     1
175
     1
176
     0
 93
-1023410169
 45
3.5
292
     0
297
     0
 46
4.0
 94
-1056964608
 47
1.0
 49
1.0
140
1.0
293
     1
141
0.0
294
     1
177
     0
142
1.0
295
     0
296
     0
143
0.0
271
     0
272
     9
273
     9
  0
MLINESTYLE
  5
18
102
{ACAD_REACTORS
330
17
102
}
330
17
100
AcDbMlineStyle
  2
STANDARD
 70
     0
  3

 62
   256
 51
90.0
 52
90.0
 71
     2
 49
0.5
 62
   256
  6
BYLAYER
 49
-0.5
 62
   256
  6
BYLAYER
  0
PLOTSETTINGS
  5
583
102
{ACAD_REACTORS
330
19
102
}
330
19
100
AcDbPlotSettings
  1
A0 - Plotter - Farbe
  2
PL02 OCE CW 300 PR.pc3
  4
User1282
  6

 40
0.0
 41
0.0
 42
0.0
 43
0.0
 44
840.9939575195313
 45
1189.016357421875
 46
0.0
 47
0.0
 48
0.0
 49
0.0
140
199.0
141
287.0
142
1.0
143
0.2413759896645135
 70
 11952
 72
     1
 73
     0
 74
     4
  7
Farbe.ctb
 75
     0
147
4.142914137358449
 76
     0
 77
     2
 78
   300
148
0.0
149
0.0
1001
ACAD_PSEXT
1000
PL02 OCE CW 300 PR.pc3
1000
Oce ColorWave 300
1000
Plotterraum
1000

1070
     0
  0
PLOTSETTINGS
  5
57A
102
{ACAD_REACTORS
330
19
102
}
330
19
100
AcDbPlotSettings
  1
A0 - Plotter - Schwarz Weiss
  2
PL02 OCE CW 300 PR.pc3
  4
User1282
  6

 40
0.0
 41
0.0
 42
0.0
 43
0.0
 44
840.9939575195313
 45
1189.016357421875
 46
0.0
 47
0.0
 48
0.0
 49
0.0
140
199.0
141
287.0
142
1.0
143
0.2413759896645135
 70
 11952
 72
     1
 73
     0
 74
     4
  7
Schwarz Weiss.ctb
 75
     0
147
4.142914137358449
 76
     0
 77
     2
 78
   300
148
0.0
149
0.0
1001
ACAD_PSEXT
1000
PL02 OCE CW 300 PR.pc3
1000
Oce ColorWave 300
1000
Plotterraum
1000

1070
     0
  0
PLOTSETTINGS
  5
571
102
{ACAD_REACTORS
330
19
102
}
330
19
100
AcDbPlotSettings
  1
A1 - Plotter - Farbe
  2
PL02 OCE CW 300 PR.pc3
  4
User1283
  6

 40
0.0
 41
0.0
 42
0.0
 43
0.0
 44
593.97900390625
 45
840.9939575195313
 46
0.0
 47
0.0
 48
0.0
 49
0.0
140
199.0
141
287.0
142
1.0
143
0.3412628562118233
 70
 11952
 72
     1
 73
     0
 74
     4
  7
Farbe.ctb
 75
     0
147
2.930292534911258
 76
     0
 77
     2
 78
   300
148
0.0
149
0.0
1001
ACAD_PSEXT
1000
PL02 OCE CW 300 PR.pc3
1000
Oce ColorWave 300
1000
Plotterraum
1000

1070
     0
  0
PLOTSETTINGS
  5
568
102
{ACAD_REACTORS
330
19
102
}
330
19
100
AcDbPlotSettings
  1
A1 - Plotter - Schwarz Weiss
  2
PL02 OCE CW 300 PR.pc3
  4
User1283
  6

 40
0.0
 41
0.0
 42
0.0
 43
0.0
 44
593.97900390625
 45
840.9939575195313
 46
0.0
 47
0.0
 48
0.0
 49
0.0
140
199.0
141
287.0
142
1.0
143
0.3412628562118233
 70
 11952
 72
     1
 73
     0
 74
     4
  7
Schwarz Weiss.ctb
 75
     0
147
2.930292534911258
 76
     0
 77
     2
 78
   300
148
0.0
149
0.0
1001
ACAD_PSEXT
1000
PL02 OCE CW 300 PR.pc3
1000
Oce ColorWave 300
1000
Plotterraum
1000

1070
     0
  0
PLOTSETTINGS
  5
536
102
{ACAD_REACTORS
330
19
102
}
330
19
100
AcDbPlotSettings
  1
A2 - Plotter - Farbe
  2
PL02 OCE CW 300 PR.pc3
  4
User1284
  6

 40
0.0
 41
0.0
 42
0.0
 43
0.0
 44
419.9889831542968
 45
593.97900390625
 46
0.0
 47
0.0
 48
0.0
 49
0.0
140
199.0
141
287.0
142
1.0
143
0.4831820621816093
 70
 11952
 72
     1
 73
     0
 74
     4
  7
Farbe.ctb
 75
     0
147
2.069613254028745
 76
     0
 77
     2
 78
   300
148
0.0
149
0.0
1001
ACAD_PSEXT
1000
PL02 OCE CW 300 PR.pc3
1000
Oce ColorWave 300
1000
Plotterraum
1000

1070
     0
  0
PLOTSETTINGS
  5
53F
102
{ACAD_REACTORS
330
19
102
}
330
19
100
AcDbPlotSettings
  1
A2 - Plotter - Schwarz Weiss
  2
PL02 OCE CW 300 PR.pc3
  4
User1284
  6

 40
0.0
 41
0.0
 42
0.0
 43
0.0
 44
419.9889831542968
 45
593.97900390625
 46
0.0
 47
0.0
 48
0.0
 49
0.0
140
199.0
141
287.0
142
1.0
143
0.4831820621816093
 70
 11952
 72
     1
 73
     0
 74
     4
  7
Schwarz Weiss.ctb
 75
     0
147
2.069613254028745
 76
     0
 77
     2
 78
   300
148
0.0
149
0.0
1001
ACAD_PSEXT
1000
PL02 OCE CW 300 PR.pc3
1000
Oce ColorWave 300
1000
Plotterraum
1000

1070
     0
  0
PLOTSETTINGS
  5
5C2
102
{ACAD_REACTORS
330
19
102
}
330
19
100
AcDbPlotSettings
  1
A3 - HP Deskjet - Farbe
  2
DLF02_NEW.pc3
  4
User163
  6

 40
3.174999952316284
 41
3.174999952316284
 42
3.17498779296875
 43
3.17498779296875
 44
304.8999938964844
 45
430.0
 46
0.0
 47
0.0
 48
0.0
 49
0.0
140
199.0
141
287.0
142
1.0
143
0.6774459853607756
 70
 11952
 72
     1
 73
     0
 74
     4
  7
Farbe.ctb
 75
     0
147
1.476132446880539
 76
     0
 77
     2
 78
   300
148
0.0
149
0.0
1001
ACAD_PSEXT
1000
DLF02_NEW.pc3
1000
HP Color LaserJet 5550 PS
1000
DLF02
1000
PlotterRaum
1070
     0
  0
PLOTSETTINGS
  5
5DB
102
{ACAD_REACTORS
330
19
102
}
330
19
100
AcDbPlotSettings
  1
A3 - HP Deskjet - Farbe - Schnelldruck
  2
DLF02_NEW.pc3
  4
User32767
  6

 40
0.0
 41
0.0
 42
-0.058013916015625
 43
0.074005126953125
 44
210.0
 45
297.0
 46
0.0
 47
0.0
 48
0.0
 49
0.0
140
199.0
141
287.0
142
1.0
143
0.9665708121065962
 70
 11952
 72
     1
 73
     0
 74
     4
  7
Farbe.ctb
 75
     0
147
1.03458534798971
 76
     0
 77
     2
 78
   300
148
0.0
149
0.0
1001
ACAD_PSEXT
1000
DLF02_NEW.pc3
1000
HP Color LaserJet 5550 PS
1000
DLF02
1000
PlotterRaum
1070
     0
  0
PLOTSETTINGS
  5
AC7F
102
{ACAD_REACTORS
330
19
102
}
330
19
100
AcDbPlotSettings
  1
A3 - Plotter - Farbe
  2
P38 - Oce TCS400 Colour HDI - A1 und kleiner.pc3
  4
UserDefinedMetric (297.00 x 420.00MM)
  6

 40
0.0
 41
0.0
 42
0.0
 43
0.0
 44
297.0
 45
420.0
 46
0.0
 47
0.0
 48
0.0
 49
0.0
140
199.0
141
287.0
142
1.0
143
0.6833333333333334
 70
 11952
 72
     1
 73
     0
 74
     4
  7
Farbe.ctb
 75
     0
147
1.463414634146341
 76
     0
 77
     2
 78
   300
148
0.0
149
0.0
1001
ACAD_PSEXT
1000
P38 - Oce TCS400 Colour HDI - A1 und kleiner.pc3
1000
Oce TCS400 Colour HDI
1000
P38: Dach und Wand CAD
1000

1070
     0
  0
PLOTSETTINGS
  5
AC80
102
{ACAD_REACTORS
330
19
102
}
330
19
100
AcDbPlotSettings
  1
A3 - Plotter - Schwarz Weiss
  2
P38 - Oce TCS400 Colour HDI - A1 und kleiner.pc3
  4
UserDefinedMetric (297.00 x 420.00MM)
  6

 40
0.0
 41
0.0
 42
0.0
 43
0.0
 44
297.0
 45
420.0
 46
0.0
 47
0.0
 48
0.0
 49
0.0
140
199.0
141
287.0
142
1.0
143
0.6833333333333334
 70
 11952
 72
     1
 73
     0
 74
     4
  7
Schwarz Weiss.ctb
 75
     0
147
1.463414634146341
 76
     0
 77
     2
 78
   300
148
0.0
149
0.0
1001
ACAD_PSEXT
1000
P38 - Oce TCS400 Colour HDI - A1 und kleiner.pc3
1000
Oce TCS400 Colour HDI
1000
P38: Dach und Wand CAD
1000

1070
     0
  0
PLOTSETTINGS
  5
51B
102
{ACAD_REACTORS
330
19
102
}
330
19
100
AcDbPlotSettings
  1
A4 - HP Deskjet - Farbe
  2
DLF02_NEW.pc3
  4
User32767
  6

 40
0.0
 41
0.0
 42
-0.058013916015625
 43
0.074005126953125
 44
210.0
 45
297.0
 46
0.0
 47
0.0
 48
0.0
 49
0.0
140
199.0
141
287.0
142
1.0
143
0.9665708121065962
 70
 11952
 72
     1
 73
     0
 74
     4
  7
Farbe.ctb
 75
     0
147
1.03458534798971
 76
     0
 77
     2
 78
   300
148
0.0
149
0.0
1001
ACAD_PSEXT
1000
DLF02_NEW.pc3
1000
HP Color LaserJet 5550 PS
1000
DLF02
1000
PlotterRaum
1070
     0
  0
PLOTSETTINGS
  5
512
102
{ACAD_REACTORS
330
19
102
}
330
19
100
AcDbPlotSettings
  1
A4 - HP Laserjet - Schwarz Weiss
  2
DL01 - Laserjet 4250n.pc3
  4
A4
  6

 40
4.199999809265136
 41
4.199999809265136
 42
4.173324584960937
 43
4.1683349609375
 44
209.9733276367187
 45
296.9683227539062
 46
0.0
 47
0.0
 48
0.0
 49
0.0
140
199.0
141
287.0
142
1.0
143
0.9944560358616715
 70
 11952
 72
     1
 73
     0
 74
     4
  7
Schwarz Weiss.ctb
 75
     0
147
1.005574871023357
 76
     0
 77
     2
 78
   300
148
0.0
149
0.0
1001
ACAD_PSEXT
1000
DL01 - Laserjet 4250n.pc3
1000
HP Universal Printing PCL 6 (v5.3)
1000
CAD / HP Laserjet 4250 FACH2
1000
HP LaserJet 4250 PCL6
1070
     0
  0
PLOTSETTINGS
  5
AC81
102
{ACAD_REACTORS
330
19
102
}
330
19
100
AcDbPlotSettings
  1
A4 - Plotter
  2
P38 - Oce TCS400 Colour HDI - A1 und kleiner.pc3
  4
UserDefinedMetric (210.00 x 297.00MM)
  6

 40
0.0
 41
0.0
 42
0.0
 43
0.0
 44
210.0
 45
297.0
 46
0.0
 47
0.0
 48
0.0
 49
0.0
140
199.0
141
287.0
142
1.0
143
0.9663299663299664
 70
 11952
 72
     1
 73
     0
 74
     4
  7
Schwarz Weiss.ctb
 75
     0
147
1.034843205574912
 76
     0
 77
     2
 78
   300
148
0.0
149
0.0
1001
ACAD_PSEXT
1000
P38 - Oce TCS400 Colour HDI - A1 und kleiner.pc3
1000
Oce TCS400 Colour HDI
1000
P38: Dach und Wand CAD
1000

1070
     0
  0
PLOTSETTINGS
  5
AC82
102
{ACAD_REACTORS
330
19
102
}
330
19
100
AcDbPlotSettings
  1
A4 - Plotter - Farbe
  2
P38 - Oce TCS400 Colour HDI - A1 und kleiner.pc3
  4
UserDefinedMetric (210.00 x 297.00MM)
  6

 40
0.0
 41
0.0
 42
0.0
 43
0.0
 44
210.0
 45
297.0
 46
0.0
 47
0.0
 48
0.0
 49
0.0
140
199.0
141
287.0
142
1.0
143
0.9663299663299664
 70
 11952
 72
     1
 73
     0
 74
     4
  7
Farbe.ctb
 75
     0
147
1.034843205574912
 76
     0
 77
     2
 78
   300
148
0.0
149
0.0
1001
ACAD_PSEXT
1000
P38 - Oce TCS400 Colour HDI - A1 und kleiner.pc3
1000
Oce TCS400 Colour HDI
1000
P38: Dach und Wand CAD
1000

1070
     0
  0
PLOTSETTINGS
  5
AC83
102
{ACAD_REACTORS
330
19
102
}
330
19
100
AcDbPlotSettings
  1
A4 - Plotter - Schwarz Weiss
  2
P38 - Oce TCS400 Colour HDI - A1 und kleiner.pc3
  4
UserDefinedMetric (210.00 x 297.00MM)
  6

 40
0.0
 41
0.0
 42
0.0
 43
0.0
 44
210.0
 45
297.0
 46
0.0
 47
0.0
 48
0.0
 49
0.0
140
199.0
141
287.0
142
1.0
143
0.9663299663299664
 70
 11952
 72
     1
 73
     0
 74
     4
  7
Schwarz Weiss.ctb
 75
     0
147
1.034843205574912
 76
     0
 77
     2
 78
   300
148
0.0
149
0.0
1001
ACAD_PSEXT
1000
P38 - Oce TCS400 Colour HDI - A1 und kleiner.pc3
1000
Oce TCS400 Colour HDI
1000
P38: Dach und Wand CAD
1000

1070
     0
  0
PLOTSETTINGS
  5
595
102
{ACAD_REACTORS
330
19
102
}
330
19
100
AcDbPlotSettings
  1
Ben1 - Plotter - Farbe
  2
PL02 OCE CW 300 PR.pc3
  4
User1295
  6

 40
0.0
 41
0.0
 42
0.0
 43
0.0
 44
840.9939575195313
 45
1379.00830078125
 46
0.0
 47
0.0
 48
0.0
 49
0.0
140
199.0
141
287.0
142
1.0
143
0.2366247678960029
 70
 11952
 72
     1
 73
     0
 74
     4
  7
Farbe.ctb
 75
     0
147
4.22610028904287
 76
     0
 77
     2
 78
   300
148
0.0
149
0.0
1001
ACAD_PSEXT
1000
PL02 OCE CW 300 PR.pc3
1000
Oce ColorWave 300
1000
Plotterraum
1000

1070
     0
  0
PLOTSETTINGS
  5
58C
102
{ACAD_REACTORS
330
19
102
}
330
19
100
AcDbPlotSettings
  1
Ben1 - Plotter - Schwarz Weiss
  2
PL02 OCE CW 300 PR.pc3
  4
User1295
  6

 40
0.0
 41
0.0
 42
0.0
 43
0.0
 44
840.9939575195313
 45
1379.00830078125
 46
0.0
 47
0.0
 48
0.0
 49
0.0
140
199.0
141
287.0
142
1.0
143
0.2366247678960029
 70
 11952
 72
     1
 73
     0
 74
     4
  7
Schwarz Weiss.ctb
 75
     0
147
4.22610028904287
 76
     0
 77
     2
 78
   300
148
0.0
149
0.0
1001
ACAD_PSEXT
1000
PL02 OCE CW 300 PR.pc3
1000
Oce ColorWave 300
1000
Plotterraum
1000

1070
     0
  0
PLOTSETTINGS
  5
59E
102
{ACAD_REACTORS
330
19
102
}
330
19
100
AcDbPlotSettings
  1
Ben2 - Plotter - Farbe
  2
PL02 OCE CW 300 PR.pc3
  4
User1296
  6

 40
0.0
 41
0.0
 42
0.0
 43
0.0
 44
840.9939575195313
 45
1569.000366210937
 46
0.0
 47
0.0
 48
0.0
 49
0.0
140
199.0
141
287.0
142
1.0
143
0.2366247678960029
 70
 11952
 72
     1
 73
     0
 74
     4
  7
Farbe.ctb
 75
     0
147
4.22610028904287
 76
     0
 77
     2
 78
   300
148
0.0
149
0.0
1001
ACAD_PSEXT
1000
PL02 OCE CW 300 PR.pc3
1000
Oce ColorWave 300
1000
Plotterraum
1000

1070
     0
  0
PLOTSETTINGS
  5
5A7
102
{ACAD_REACTORS
330
19
102
}
330
19
100
AcDbPlotSettings
  1
Ben2 - Plotter - Schwarz Weiss
  2
PL02 OCE CW 300 PR.pc3
  4
User1296
  6

 40
0.0
 41
0.0
 42
0.0
 43
0.0
 44
840.9939575195313
 45
1569.000366210937
 46
0.0
 47
0.0
 48
0.0
 49
0.0
140
199.0
141
287.0
142
1.0
143
0.2366247678960029
 70
 11952
 72
     1
 73
     0
 74
     4
  7
Schwarz Weiss.ctb
 75
     0
147
4.22610028904287
 76
     0
 77
     2
 78
   300
148
0.0
149
0.0
1001
ACAD_PSEXT
1000
PL02 OCE CW 300 PR.pc3
1000
Oce ColorWave 300
1000
Plotterraum
1000

1070
     0
  0
PLOTSETTINGS
  5
5B9
102
{ACAD_REACTORS
330
19
102
}
330
19
100
AcDbPlotSettings
  1
Ben3 - Plotter - Farbe
  2
PL02 OCE CW 300 PR.pc3
  4
User1297
  6

 40
0.0
 41
0.0
 42
0.0
 43
0.0
 44
840.9939575195313
 45
1758.992309570312
 46
0.0
 47
0.0
 48
0.0
 49
0.0
140
199.0
141
287.0
142
1.0
143
0.2366247678960029
 70
 11952
 72
     1
 73
     0
 74
     4
  7
Farbe.ctb
 75
     0
147
4.22610028904287
 76
     0
 77
     2
 78
   300
148
0.0
149
0.0
1001
ACAD_PSEXT
1000
PL02 OCE CW 300 PR.pc3
1000
Oce ColorWave 300
1000
Plotterraum
1000

1070
     0
  0
PLOTSETTINGS
  5
5B0
102
{ACAD_REACTORS
330
19
102
}
330
19
100
AcDbPlotSettings
  1
Ben3 - Plotter - Schwarz Weiss
  2
PL02 OCE CW 300 PR.pc3
  4
User1297
  6

 40
0.0
 41
0.0
 42
0.0
 43
0.0
 44
840.9939575195313
 45
1758.992309570312
 46
0.0
 47
0.0
 48
0.0
 49
0.0
140
199.0
141
287.0
142
1.0
143
0.2366247678960029
 70
 11952
 72
     1
 73
     0
 74
     4
  7
Schwarz Weiss.ctb
 75
     0
147
4.22610028904287
 76
     0
 77
     2
 78
   300
148
0.0
149
0.0
1001
ACAD_PSEXT
1000
PL02 OCE CW 300 PR.pc3
1000
Oce ColorWave 300
1000
Plotterraum
1000

1070
     0
  0
ACDBPLACEHOLDER
  5
F
102
{ACAD_REACTORS
330
E
102
}
330
E
  0
SCALE
  5
82EF
102
{ACAD_REACTORS
330
612
102
}
330
612
100
AcDbScale
 70
     0
300
2:1
140
2.0
141
1.0
290
     0
  0
SCALE
  5
613
102
{ACAD_REACTORS
330
612
102
}
330
612
100
AcDbScale
 70
     0
300
1:1
140
1.0
141
1.0
290
     1
  0
SCALE
  5
82F0
102
{ACAD_REACTORS
330
612
102
}
330
612
100
AcDbScale
 70
     0
300
1:2
140
1.0
141
2.0
290
     0
  0
SCALE
  5
82F1
102
{ACAD_REACTORS
330
612
102
}
330
612
100
AcDbScale
 70
     0
300
1:5
140
1.0
141
5.0
290
     0
  0
SCALE
  5
82F2
102
{ACAD_REACTORS
330
612
102
}
330
612
100
AcDbScale
 70
     0
300
1:10
140
1.0
141
10.0
290
     0
  0
SCALE
  5
82F3
102
{ACAD_REACTORS
330
612
102
}
330
612
100
AcDbScale
 70
     0
300
1:20
140
1.0
141
20.0
290
     0
  0
SCALE
  5
82F4
102
{ACAD_REACTORS
330
612
102
}
330
612
100
AcDbScale
 70
     0
300
1:50
140
1.0
141
50.0
290
     0
  0
SCALE
  5
82F5
102
{ACAD_REACTORS
330
612
102
}
330
612
100
AcDbScale
 70
     0
300
1:100
140
1.0
141
100.0
290
     0
  0
ACDBSECTIONVIEWSTYLE
  5
B19F
102
{ACAD_XDICTIONARY
360
1087D
102
}
102
{ACAD_REACTORS
330
AB4C
102
}
330
AB4C
100
AcDbModelDocViewStyle
 70
     0
  3
Imperial24
290
     0
100
AcDbSectionViewStyle
 70
     0
 71
     0
 90
       78
 71
     1
340
11
 62
   256
 40
0.24
340
0
340
0
 62
   256
 40
0.24
300
I, O, Q, S, X, Z
 40
0.48
 90
        3
 40
0.18
 90
        1
 71
     2
340
16
 90
       25
 62
   256
340
16
 90
       50
 62
   256
 40
0.24
 40
0.0
 40
0.24
 71
     3
340
11
 62
   256
 40
0.24
 90
        1
 40
0.75
 90
        1
300
%<\AcVar ViewType \f "%tc1">% %<\AcVar ViewSectionStartId>%-%<\AcVar ViewSectionEndId>%\PVARIA %<\AcVar ViewScale \f "%sn">%
 71
     4
 62
   256
 62
   257
300
ANSI31
 40
1.0
 90
        0
290
     0
290
     0
 90
        6
 40
0.0
 40
1.570796326794896
 40
0.2617993877991494
 40
1.308996938995747
 40
-0.2617993877991494
 40
1.832595714594046
  0
ACDBSECTIONVIEWSTYLE
  5
AB4D
102
{ACAD_XDICTIONARY
360
10879
102
}
102
{ACAD_REACTORS
330
AB4C
102
}
330
AB4C
100
AcDbModelDocViewStyle
 70
     0
  3
Metric50
290
     0
100
AcDbSectionViewStyle
 70
     0
 71
     0
 90
      102
 71
     1
340
11
 62
   256
 40
5.0
340
0
340
0
 62
   256
 40
5.0
300
I, O, Q, S, X, Z
 40
10.0
 90
        0
 40
2.5
 90
        0
 71
     2
340
16
 90
       25
 62
   256
340
16
 90
       50
 62
   256
 40
5.0
 40
2.5
 40
5.0
 71
     3
340
11
 62
   256
 40
5.0
 90
        0
 40
15.0
 90
        1
300
%<\AcVar ViewSectionStartId>%-%<\AcVar ViewSectionEndId>% (%<\AcVar ViewScale \f "%sn">%)
 71
     4
 62
   256
 62
   257
300
ANSI31
 40
1.0
 90
        0
290
     0
290
     0
 90
        6
 40
0.0
 40
1.570796326794896
 40
0.2617993877991494
 40
1.308996938995747
 40
-0.2617993877991494
 40
1.832595714594046
  0
TABLESTYLE
  5
472
102
{ACAD_XDICTIONARY
360
645
102
}
102
{ACAD_REACTORS
330
471
102
}
330
471
100
AcDbTableStyle
280
     0
  3
Standard
 70
     0
 71
     0
 40
1.5
 41
1.5
280
     0
281
     0
  7
Standard
140
4.5
170
     2
 62
     0
 63
     7
283
     0
 90
        4
 91
        0
  1

274
    -2
284
     1
 64
     0
275
    -2
285
     1
 65
     0
276
    -2
286
     1
 66
     0
277
    -2
287
     1
 67
     0
278
    -2
288
     1
 68
     0
279
    -2
289
     1
 69
     0
  7
Standard
140
6.0
170
     5
 62
     0
 63
     7
283
     0
 90
        4
 91
        0
  1

274
    -2
284
     1
 64
     0
275
    -2
285
     1
 65
     0
276
    -2
286
     1
 66
     0
277
    -2
287
     1
 67
     0
278
    -2
288
     1
 68
     0
279
    -2
289
     1
 69
     0
  7
Standard
140
4.5
170
     5
 62
     0
 63
     7
283
     0
 90
        4
 91
        0
  1

274
    -2
284
     1
 64
     0
275
    -2
285
     1
 65
     0
276
    -2
286
     1
 66
     0
277
    -2
287
     1
 67
     0
278
    -2
288
     1
 68
     0
279
    -2
289
     1
 69
     0
  0
VISUALSTYLE
  5
607
102
{ACAD_XDICTIONARY
360
1084F
102
}
102
{ACAD_REACTORS
330
601
102
}
330
601
100
AcDbVisualStyle
  2
2dWireframe
 70
     4
177
     2
291
     0
 71
     0
176
     1
 72
     2
176
     1
 73
     0
176
     1
 90
        0
176
     1
 40
0.6
176
     1
 41
30.0
176
     1
 63
     7
176
     1
 74
     1
176
     1
 91
        4
176
     1
 64
     7
176
     1
 65
   257
176
     1
 75
     1
176
     1
175
     1
176
     1
 42
1.0
176
     1
 92
        0
176
     1
 66
   257
176
     1
 43
1.0
176
     1
 76
     1
176
     1
 77
     6
176
     1
 78
     2
176
     1
 67
     7
176
     1
 79
     5
176
     1
170
     0
176
     1
171
     0
176
     1
290
     0
176
     1
 93
        1
176
     1
 44
0.0
176
     1
173
     0
176
     1
1001
ACAD
1000
AcDbSavedByObjectVersion
1070
     0
  0
VISUALSTYLE
  5
609
102
{ACAD_XDICTIONARY
360
10853
102
}
102
{ACAD_REACTORS
330
601
102
}
330
601
100
AcDbVisualStyle
  2
3D Hidden
 70
     6
177
     2
291
     0
 71
     1
176
     1
 72
     2
176
     1
 73
     2
176
     1
 90
        0
176
     1
 40
0.6
176
     1
 41
30.0
176
     1
 63
     7
176
     1
 74
     2
176
     1
 91
        2
176
     1
 64
     7
176
     1
 65
   257
176
     1
 75
     2
176
     1
175
     1
176
     1
 42
40.0
176
     1
 92
        0
176
     1
 66
   257
176
     1
 43
1.0
176
     1
 76
     1
176
     1
 77
     6
176
     1
 78
     2
176
     1
 67
     7
176
     1
 79
     3
176
     1
170
     0
176
     1
171
     0
176
     1
290
     0
176
     1
 93
        1
176
     1
 44
0.0
176
     1
173
     0
176
     1
1001
ACAD
1000
AcDbSavedByObjectVersion
1070
     0
  0
VISUALSTYLE
  5
608
102
{ACAD_XDICTIONARY
360
10851
102
}
102
{ACAD_REACTORS
330
601
102
}
330
601
100
AcDbVisualStyle
  2
3dWireframe
 70
     5
177
     2
291
     0
 71
     0
176
     1
 72
     2
176
     1
 73
     0
176
     1
 90
        0
176
     1
 40
0.6
176
     1
 41
30.0
176
     1
 63
     7
176
     1
 74
     1
176
     1
 91
        4
176
     1
 64
     7
176
     1
 65
   257
176
     1
 75
     1
176
     1
175
     1
176
     1
 42
1.0
176
     1
 92
        0
176
     1
 66
   257
176
     1
 43
1.0
176
     1
 76
     1
176
     1
 77
     6
176
     1
 78
     2
176
     1
 67
     7
176
     1
 79
     5
176
     1
170
     0
176
     1
171
     0
176
     1
290
     0
176
     1
 93
        1
176
     1
 44
0.0
176
     1
173
     0
176
     1
1001
ACAD
1000
AcDbSavedByObjectVersion
1070
     0
  0
VISUALSTYLE
  5
606
102
{ACAD_XDICTIONARY
360
1084D
102
}
102
{ACAD_REACTORS
330
601
102
}
330
601
100
AcDbVisualStyle
  2
Basic
 70
     7
177
     2
291
     1
 71
     1
176
     1
 72
     0
176
     1
 73
     1
176
     1
 90
        0
176
     1
 40
0.6
176
     1
 41
30.0
176
     1
 63
     7
176
     1
 74
     0
176
     1
 91
        4
176
     1
 64
     7
176
     1
 65
   257
176
     1
 75
     1
176
     1
175
     1
176
     1
 42
1.0
176
     1
 92
        8
176
     1
 66
     7
176
     1
 43
1.0
176
     1
 76
     1
176
     1
 77
     6
176
     1
 78
     2
176
     1
 67
     7
176
     1
 79
     5
176
     1
170
     0
176
     1
171
     0
176
     1
290
     0
176
     1
 93
        1
176
     1
 44
0.0
176
     1
173
     0
176
     1
1001
ACAD
1000
AcDbSavedByObjectVersion
1070
     0
  0
VISUALSTYLE
  5
60D
102
{ACAD_XDICTIONARY
360
1085B
102
}
102
{ACAD_REACTORS
330
601
102
}
330
601
100
AcDbVisualStyle
  2
Brighten
 70
    12
177
     2
291
     1
 71
     2
176
     1
 72
     2
176
     1
 73
     0
176
     1
 90
        0
176
     1
 40
0.6
176
     1
 41
30.0
176
     1
 63
     7
176
     1
 74
     1
176
     1
 91
        4
176
     1
 64
     7
176
     1
 65
   257
176
     1
 75
     1
176
     1
175
     1
176
     1
 42
1.0
176
     1
 92
        8
176
     1
 66
     7
176
     1
 43
1.0
176
     1
 76
     1
176
     1
 77
     6
176
     1
 78
     2
176
     1
 67
     7
176
     1
 79
     5
176
     1
170
     0
176
     1
171
     0
176
     1
290
     0
176
     1
 93
        1
176
     1
 44
50.0
176
     1
173
     0
176
     1
1001
ACAD
1000
AcDbSavedByObjectVersion
1070
     0
  0
VISUALSTYLE
  5
611
102
{ACAD_XDICTIONARY
360
10863
102
}
102
{ACAD_REACTORS
330
601
102
}
330
601
100
AcDbVisualStyle
  2
ColorChange
 70
    16
177
     2
291
     1
 71
     2
176
     1
 72
     2
176
     1
 73
     3
176
     1
 90
        0
176
     1
 40
0.6
176
     1
 41
30.0
176
     1
 63
     8
176
     1
 74
     1
176
     1
 91
        4
176
     1
 64
     7
176
     1
 65
   257
176
     1
 75
     1
176
     1
175
     1
176
     1
 42
1.0
176
     1
 92
        8
176
     1
 66
     8
176
     1
 43
1.0
176
     1
 76
     1
176
     1
 77
     6
176
     1
 78
     2
176
     1
 67
     7
176
     1
 79
     5
176
     1
170
     0
176
     1
171
     0
176
     1
290
     0
176
     1
 93
        1
176
     1
 44
0.0
176
     1
173
     0
176
     1
1001
ACAD
1000
AcDbSavedByObjectVersion
1070
     0
  0
VISUALSTYLE
  5
60A
102
{ACAD_XDICTIONARY
360
10855
102
}
102
{ACAD_REACTORS
330
601
102
}
330
601
100
AcDbVisualStyle
  2
Conceptual
 70
     9
177
     2
291
     0
 71
     3
176
     1
 72
     2
176
     1
 73
     0
176
     1
 90
        0
176
     1
 40
0.6
176
     1
 41
30.0
176
     1
 63
     7
176
     1
 74
     2
176
     1
 91
        2
176
     1
 64
     7
176
     1
 65
   257
176
     1
 75
     1
176
     1
175
     1
176
     1
 42
40.0
176
     1
 92
        8
176
     1
 66
     7
176
     1
 43
1.0
176
     1
 76
     1
176
     1
 77
     6
176
     1
 78
     2
176
     1
 67
     7
176
     1
 79
     3
176
     1
170
     0
176
     1
171
     0
176
     1
290
     0
176
     1
 93
        1
176
     1
 44
0.0
176
     1
173
     0
176
     1
1001
ACAD
1000
AcDbSavedByObjectVersion
1070
     0
  0
VISUALSTYLE
  5
60C
102
{ACAD_XDICTIONARY
360
10859
102
}
102
{ACAD_REACTORS
330
601
102
}
330
601
100
AcDbVisualStyle
  2
Dim
 70
    11
177
     2
291
     1
 71
     2
176
     1
 72
     2
176
     1
 73
     0
176
     1
 90
        0
176
     1
 40
0.6
176
     1
 41
30.0
176
     1
 63
     7
176
     1
 74
     1
176
     1
 91
        4
176
     1
 64
     7
176
     1
 65
   257
176
     1
 75
     1
176
     1
175
     1
176
     1
 42
1.0
176
     1
 92
        8
176
     1
 66
     7
176
     1
 43
1.0
176
     1
 76
     1
176
     1
 77
     6
176
     1
 78
     2
176
     1
 67
     7
176
     1
 79
     5
176
     1
170
     0
176
     1
171
     0
176
     1
290
     0
176
     1
 93
        1
176
     1
 44
-50.0
176
     1
173
     0
176
     1
1001
ACAD
1000
AcDbSavedByObjectVersion
1070
     0
  0
VISUALSTYLE
  5
A4BB
102
{ACAD_XDICTIONARY
360
10869
102
}
102
{ACAD_REACTORS
330
601
102
}
330
601
100
AcDbVisualStyle
  2
EdgeColorOff
 70
    22
177
     2
291
     1
 71
     2
176
     0
 72
     2
176
     0
 73
     0
176
     0
 90
        0
176
     0
 40
0.6
176
     0
 41
30.0
176
     0
 63
     7
421
 16777215
176
     0
 74
     1
176
     0
 91
        4
176
     0
 64
     7
176
     0
 65
   257
176
     0
 75
     1
176
     0
175
     1
176
     0
 42
1.0
176
     0
 92
        8
176
     2
 66
     7
176
     0
 43
1.0
176
     0
 76
     1
176
     0
 77
     6
176
     0
 78
     2
176
     0
 67
     7
176
     0
 79
     5
176
     0
170
     0
176
     0
171
     0
176
     0
290
     0
176
     0
 93
        1
176
     0
 44
0.0
176
     0
173
     0
176
     0
1001
ACAD
1000
AcDbSavedByObjectVersion
1070
     0
  0
VISUALSTYLE
  5
610
102
{ACAD_XDICTIONARY
360
10861
102
}
102
{ACAD_REACTORS
330
601
102
}
330
601
100
AcDbVisualStyle
  2
Facepattern
 70
    15
177
     2
291
     1
 71
     2
176
     1
 72
     2
176
     1
 73
     0
176
     1
 90
        0
176
     1
 40
0.6
176
     1
 41
30.0
176
     1
 63
     7
176
     1
 74
     1
176
     1
 91
        4
176
     1
 64
     7
176
     1
 65
   257
176
     1
 75
     1
176
     1
175
     1
176
     1
 42
1.0
176
     1
 92
        8
176
     1
 66
     7
176
     1
 43
1.0
176
     1
 76
     1
176
     1
 77
     6
176
     1
 78
     2
176
     1
 67
     7
176
     1
 79
     5
176
     1
170
     0
176
     1
171
     0
176
     1
290
     0
176
     1
 93
        1
176
     1
 44
0.0
176
     1
173
     0
176
     1
1001
ACAD
1000
AcDbSavedByObjectVersion
1070
     0
  0
VISUALSTYLE
  5
602
102
{ACAD_XDICTIONARY
360
10845
102
}
102
{ACAD_REACTORS
330
601
102
}
330
601
100
AcDbVisualStyle
  2
Flat
 70
     0
177
     2
291
     1
 71
     2
176
     1
 72
     1
176
     1
 73
     1
176
     1
 90
        2
176
     1
 40
0.6
176
     1
 41
30.0
176
     1
 63
     7
176
     1
 74
     0
176
     1
 91
        4
176
     1
 64
     7
176
     1
 65
   257
176
     1
 75
     1
176
     1
175
     1
176
     1
 42
1.0
176
     1
 92
        8
176
     1
 66
     7
176
     1
 43
1.0
176
     1
 76
     1
176
     1
 77
     6
176
     1
 78
     2
176
     1
 67
     7
176
     1
 79
     5
176
     1
170
     0
176
     1
171
     0
176
     1
290
     0
176
     1
 93
       13
176
     1
 44
0.0
176
     1
173
     0
176
     1
1001
ACAD
1000
AcDbSavedByObjectVersion
1070
     0
  0
VISUALSTYLE
  5
603
102
{ACAD_XDICTIONARY
360
10847
102
}
102
{ACAD_REACTORS
330
601
102
}
330
601
100
AcDbVisualStyle
  2
FlatWithEdges
 70
     1
177
     2
291
     1
 71
     2
176
     1
 72
     1
176
     1
 73
     1
176
     1
 90
        2
176
     1
 40
0.6
176
     1
 41
30.0
176
     1
 63
     7
176
     1
 74
     1
176
     1
 91
        4
176
     1
 64
     7
176
     1
 65
   257
176
     1
 75
     1
176
     1
175
     1
176
     1
 42
1.0
176
     1
 92
        0
176
     1
 66
   257
176
     1
 43
1.0
176
     1
 76
     1
176
     1
 77
     6
176
     1
 78
     2
176
     1
 67
     7
176
     1
 79
     5
176
     1
170
     0
176
     1
171
     0
176
     1
290
     0
176
     1
 93
       13
176
     1
 44
0.0
176
     1
173
     0
176
     1
1001
ACAD
1000
AcDbSavedByObjectVersion
1070
     0
  0
VISUALSTYLE
  5
604
102
{ACAD_XDICTIONARY
360
10849
102
}
102
{ACAD_REACTORS
330
601
102
}
330
601
100
AcDbVisualStyle
  2
Gouraud
 70
     2
177
     2
291
     1
 71
     2
176
     1
 72
     2
176
     1
 73
     1
176
     1
 90
        2
176
     1
 40
0.6
176
     1
 41
30.0
176
     1
 63
     7
176
     1
 74
     0
176
     1
 91
        4
176
     1
 64
     7
176
     1
 65
   257
176
     1
 75
     1
176
     1
175
     1
176
     1
 42
1.0
176
     1
 92
        0
176
     1
 66
     7
176
     1
 43
1.0
176
     1
 76
     1
176
     1
 77
     6
176
     1
 78
     2
176
     1
 67
     7
176
     1
 79
     5
176
     1
170
     0
176
     1
171
     0
176
     1
290
     0
176
     1
 93
       13
176
     1
 44
0.0
176
     1
173
     0
176
     1
1001
ACAD
1000
AcDbSavedByObjectVersion
1070
     0
  0
VISUALSTYLE
  5
605
102
{ACAD_XDICTIONARY
360
1084B
102
}
102
{ACAD_REACTORS
330
601
102
}
330
601
100
AcDbVisualStyle
  2
GouraudWithEdges
 70
     3
177
     2
291
     1
 71
     2
176
     1
 72
     2
176
     1
 73
     1
176
     1
 90
        2
176
     1
 40
0.6
176
     1
 41
30.0
176
     1
 63
     7
176
     1
 74
     1
176
     1
 91
        4
176
     1
 64
     7
176
     1
 65
   257
176
     1
 75
     1
176
     1
175
     1
176
     1
 42
1.0
176
     1
 92
        0
176
     1
 66
   257
176
     1
 43
1.0
176
     1
 76
     1
176
     1
 77
     6
176
     1
 78
     2
176
     1
 67
     7
176
     1
 79
     5
176
     1
170
     0
176
     1
171
     0
176
     1
290
     0
176
     1
 93
       13
176
     1
 44
0.0
176
     1
173
     0
176
     1
1001
ACAD
1000
AcDbSavedByObjectVersion
1070
     0
  0
VISUALSTYLE
  5
AB46
102
{ACAD_XDICTIONARY
360
1086D
102
}
102
{ACAD_REACTORS
330
601
102
}
330
601
100
AcDbVisualStyle
  2
Hidden
 70
     6
177
     2
291
     0
 71
     1
176
     1
 72
     2
176
     1
 73
     2
176
     1
 90
        0
176
     1
 40
0.6
176
     1
 41
30.0
176
     1
 63
     7
421
 16777215
176
     1
 74
     2
176
     1
 91
        2
176
     1
 64
     7
176
     1
 65
   257
176
     1
 75
     2
176
     1
175
     1
176
     1
 42
40.0
176
     1
 92
        0
176
     1
 66
   257
176
     1
 43
1.0
176
     1
 76
     1
176
     1
 77
     6
176
     1
 78
     2
176
     1
 67
     7
176
     1
 79
     3
176
     1
170
     0
176
     1
171
     0
176
     1
290
     0
176
     1
 93
        1
176
     1
 44
0.0
176
     1
173
     0
176
     1
1001
ACAD
1000
AcDbSavedByObjectVersion
1070
     0
  0
VISUALSTYLE
  5
A4B9
102
{ACAD_XDICTIONARY
360
10865
102
}
102
{ACAD_REACTORS
330
601
102
}
330
601
100
AcDbVisualStyle
  2
JitterOff
 70
    20
177
     2
291
     1
 71
     2
176
     0
 72
     2
176
     0
 73
     0
176
     0
 90
        0
176
     0
 40
0.6
176
     0
 41
30.0
176
     0
 63
     7
421
 16777215
176
     0
 74
     1
176
     0
 91
        4
176
     0
 64
     7
176
     0
 65
   257
176
     0
 75
     1
176
     0
175
     1
176
     0
 42
1.0
176
     0
 92
       10
176
     2
 66
     7
176
     0
 43
1.0
176
     0
 76
     1
176
     0
 77
     6
176
     0
 78
     2
176
     0
 67
     7
176
     0
 79
     5
176
     0
170
     0
176
     0
171
     0
176
     0
290
     0
176
     0
 93
        1
176
     0
 44
0.0
176
     0
173
     0
176
     0
1001
ACAD
1000
AcDbSavedByObjectVersion
1070
     0
  0
VISUALSTYLE
  5
60F
102
{ACAD_XDICTIONARY
360
1085F
102
}
102
{ACAD_REACTORS
330
601
102
}
330
601
100
AcDbVisualStyle
  2
Linepattern
 70
    14
177
     2
291
     1
 71
     2
176
     1
 72
     2
176
     1
 73
     0
176
     1
 90
        0
176
     1
 40
0.6
176
     1
 41
30.0
176
     1
 63
     7
176
     1
 74
     1
176
     1
 91
        4
176
     1
 64
     7
176
     1
 65
   257
176
     1
 75
     7
176
     1
175
     7
176
     1
 42
1.0
176
     1
 92
        8
176
     1
 66
     7
176
     1
 43
1.0
176
     1
 76
     1
176
     1
 77
     6
176
     1
 78
     2
176
     1
 67
     7
176
     1
 79
     5
176
     1
170
     0
176
     1
171
     0
176
     1
290
     0
176
     1
 93
        1
176
     1
 44
0.0
176
     1
173
     0
176
     1
1001
ACAD
1000
AcDbSavedByObjectVersion
1070
     0
  0
VISUALSTYLE
  5
A4BA
102
{ACAD_XDICTIONARY
360
10867
102
}
102
{ACAD_REACTORS
330
601
102
}
330
601
100
AcDbVisualStyle
  2
OverhangOff
 70
    21
177
     2
291
     1
 71
     2
176
     0
 72
     2
176
     0
 73
     0
176
     0
 90
        0
176
     0
 40
0.6
176
     0
 41
30.0
176
     0
 63
     7
421
 16777215
176
     0
 74
     1
176
     0
 91
        4
176
     0
 64
     7
176
     0
 65
   257
176
     0
 75
     1
176
     0
175
     1
176
     0
 42
1.0
176
     0
 92
        9
176
     2
 66
     7
176
     0
 43
1.0
176
     0
 76
     1
176
     0
 77
     6
176
     0
 78
     2
176
     0
 67
     7
176
     0
 79
     5
176
     0
170
     0
176
     0
171
     0
176
     0
290
     0
176
     0
 93
        1
176
     0
 44
0.0
176
     0
173
     0
176
     0
1001
ACAD
1000
AcDbSavedByObjectVersion
1070
     0
  0
VISUALSTYLE
  5
60B
102
{ACAD_XDICTIONARY
360
10857
102
}
102
{ACAD_REACTORS
330
601
102
}
330
601
100
AcDbVisualStyle
  2
Realistic
 70
     8
177
     2
291
     0
 71
     2
176
     1
 72
     2
176
     1
 73
     0
176
     1
 90
        0
176
     1
 40
0.6
176
     1
 41
30.0
176
     1
 63
     7
176
     1
 74
     1
176
     1
 91
        0
176
     1
 64
     7
176
     1
 65
   257
176
     1
 75
     1
176
     1
175
     1
176
     1
 42
1.0
176
     1
 92
        8
176
     1
 66
     8
176
     1
 43
1.0
176
     1
 76
     1
176
     1
 77
     6
176
     1
 78
     2
176
     1
 67
     7
176
     1
 79
     5
176
     1
170
     0
176
     1
171
     0
176
     1
290
     0
176
     1
 93
       13
176
     1
 44
0.0
176
     1
173
     0
176
     1
1001
ACAD
1000
AcDbSavedByObjectVersion
1070
     0
  0
VISUALSTYLE
  5
AB4B
102
{ACAD_XDICTIONARY
360
10877
102
}
102
{ACAD_REACTORS
330
601
102
}
330
601
100
AcDbVisualStyle
  2
Shaded
 70
    27
177
     2
291
     0
 71
     2
176
     1
 72
     2
176
     1
 73
     1
176
     1
 90
        2
176
     1
 40
0.6
176
     1
 41
30.0
176
     1
 63
     7
421
 16777215
176
     1
 74
     0
176
     1
 91
        4
176
     1
 64
     7
176
     1
 65
   257
176
     1
 75
     1
176
     1
175
     1
176
     1
 42
1.0
176
     1
 92
        8
176
     1
 66
   257
176
     1
 43
1.0
176
     1
 76
     1
176
     1
 77
     6
176
     1
 78
     2
176
     1
 67
     8
425
  7895160
176
     1
 79
     3
176
     1
170
     0
176
     1
171
     0
176
     1
290
     0
176
     1
 93
        5
176
     1
 44
0.0
176
     1
173
     0
176
     1
1001
ACAD
1000
AcDbSavedByObjectVersion
1070
     0
  0
VISUALSTYLE
  5
AB4A
102
{ACAD_XDICTIONARY
360
10875
102
}
102
{ACAD_REACTORS
330
601
102
}
330
601
100
AcDbVisualStyle
  2
Shaded with edges
 70
    26
177
     2
291
     0
 71
     2
176
     1
 72
     2
176
     1
 73
     1
176
     1
 90
        2
176
     1
 40
0.6
176
     1
 41
30.0
176
     1
 63
     7
421
 16777215
176
     1
 74
     1
176
     1
 91
        2
176
     1
 64
     7
176
     1
 65
   257
176
     1
 75
     2
176
     1
175
     1
176
     1
 42
1.0
176
     1
 92
        8
176
     1
 66
   257
176
     1
 43
1.0
176
     1
 76
     1
176
     1
 77
     6
176
     1
 78
     2
176
     1
 67
     7
176
     1
 79
     3
176
     1
170
     0
176
     1
171
     0
176
     1
290
     0
176
     1
 93
        5
176
     1
 44
0.0
176
     1
173
     0
176
     1
1001
ACAD
1000
AcDbSavedByObjectVersion
1070
     0
  0
VISUALSTYLE
  5
AB47
102
{ACAD_XDICTIONARY
360
1086F
102
}
102
{ACAD_REACTORS
330
601
102
}
330
601
100
AcDbVisualStyle
  2
Shades of Gray
 70
    23
177
     2
291
     0
 71
     2
176
     1
 72
     2
176
     1
 73
     3
176
     1
 90
        0
176
     1
 40
0.6
176
     1
 41
30.0
176
     1
 63
     7
421
 16777215
176
     1
 74
     2
176
     1
 91
        2
176
     1
 64
     7
176
     1
 65
     7
176
     1
 75
     1
176
     1
175
     1
176
     1
 42
40.0
176
     1
 92
        8
176
     1
 66
     7
176
     1
 43
1.0
176
     1
 76
     1
176
     1
 77
     6
176
     1
 78
     2
176
     1
 67
     7
176
     1
 79
     3
176
     1
170
     0
176
     1
171
     0
176
     1
290
     0
176
     1
 93
        1
176
     1
 44
0.0
176
     1
173
     0
176
     1
1001
ACAD
1000
AcDbSavedByObjectVersion
1070
     0
  0
VISUALSTYLE
  5
AB48
102
{ACAD_XDICTIONARY
360
10871
102
}
102
{ACAD_REACTORS
330
601
102
}
330
601
100
AcDbVisualStyle
  2
Sketchy
 70
    24
177
     2
291
     0
 71
     1
176
     1
 72
     2
176
     1
 73
     2
176
     1
 90
        0
176
     1
 40
0.6
176
     1
 41
30.0
176
     1
 63
     7
421
 16777215
176
     1
 74
     2
176
     1
 91
        2
176
     1
 64
     7
176
     1
 65
     7
176
     1
 75
     1
176
     1
175
     1
176
     1
 42
40.0
176
     1
 92
       11
176
     1
 66
     7
176
     1
 43
1.0
176
     1
 76
     1
176
     1
 77
     6
176
     1
 78
     2
176
     1
 67
     7
176
     1
 79
     6
176
     1
170
     0
176
     1
171
     0
176
     1
290
     0
176
     1
 93
        1
176
     1
 44
0.0
176
     1
173
     0
176
     1
1001
ACAD
1000
AcDbSavedByObjectVersion
1070
     0
  0
VISUALSTYLE
  5
60E
102
{ACAD_XDICTIONARY
360
1085D
102
}
102
{ACAD_REACTORS
330
601
102
}
330
601
100
AcDbVisualStyle
  2
Thicken
 70
    13
177
     2
291
     1
 71
     2
176
     1
 72
     2
176
     1
 73
     0
176
     1
 90
        0
176
     1
 40
0.6
176
     1
 41
30.0
176
     1
 63
     7
176
     1
 74
     1
176
     1
 91
        4
176
     1
 64
     7
176
     1
 65
   257
176
     1
 75
     1
176
     1
175
     1
176
     1
 42
1.0
176
     1
 92
       12
176
     1
 66
     7
176
     1
 43
1.0
176
     1
 76
     1
176
     1
 77
     6
176
     1
 78
     2
176
     1
 67
     7
176
     1
 79
     5
176
     1
170
     0
176
     1
171
     0
176
     1
290
     0
176
     1
 93
        1
176
     1
 44
0.0
176
     1
173
     0
176
     1
1001
ACAD
1000
AcDbSavedByObjectVersion
1070
     0
  0
VISUALSTYLE
  5
AB45
102
{ACAD_XDICTIONARY
360
1086B
102
}
102
{ACAD_REACTORS
330
601
102
}
330
601
100
AcDbVisualStyle
  2
Wireframe
 70
     5
177
     2
291
     0
 71
     0
176
     1
 72
     2
176
     1
 73
     0
176
     1
 90
        0
176
     1
 40
0.6
176
     1
 41
30.0
176
     1
 63
     7
421
 16777215
176
     1
 74
     1
176
     1
 91
        4
176
     1
 64
     7
176
     1
 65
   257
176
     1
 75
     1
176
     1
175
     1
176
     1
 42
1.0
176
     1
 92
        0
176
     1
 66
   257
176
     1
 43
1.0
176
     1
 76
     1
176
     1
 77
     6
176
     1
 78
     2
176
     1
 67
     7
176
     1
 79
     3
176
     1
170
     0
176
     1
171
     0
176
     1
290
     0
176
     1
 93
        1
176
     1
 44
0.0
176
     1
173
     0
176
     1
1001
ACAD
1000
AcDbSavedByObjectVersion
1070
     0
  0
VISUALSTYLE
  5
AB49
102
{ACAD_XDICTIONARY
360
10873
102
}
102
{ACAD_REACTORS
330
601
102
}
330
601
100
AcDbVisualStyle
  2
X-Ray
 70
    25
177
     2
291
     0
 71
     2
176
     1
 72
     2
176
     1
 73
     1
176
     1
 90
        1
176
     1
 40
0.5
176
     1
 41
30.0
176
     1
 63
     7
421
 16777215
176
     1
 74
     1
176
     1
 91
        0
176
     1
 64
     7
176
     1
 65
   257
176
     1
 75
     1
176
     1
175
     1
176
     1
 42
1.0
176
     1
 92
        8
176
     1
 66
     7
176
     1
 43
1.0
176
     1
 76
     1
176
     1
 77
     6
176
     1
 78
     2
176
     1
 67
     7
176
     1
 79
     3
176
     1
170
     0
176
     1
171
     0
176
     1
290
     0
176
     1
 93
       13
176
     1
 44
0.0
176
     1
173
     0
176
     1
1001
ACAD
1000
AcDbSavedByObjectVersion
1070
     0
  0
DICTIONARYVAR
  5
64A
102
{ACAD_REACTORS
330
8F
102
}
330
8F
100
DictionaryVariables
280
     0
  1
1
  0
DICTIONARYVAR
  5
64B
102
{ACAD_REACTORS
330
8F
102
}
330
8F
100
DictionaryVariables
280
     0
  1
1:1
  0
DICTIONARYVAR
  5
648
102
{ACAD_REACTORS
330
8F
102
}
330
8F
100
DictionaryVariables
280
     0
  1
Beschriftung
  0
DICTIONARYVAR
  5
49D
102
{ACAD_REACTORS
330
8F
102
}
330
8F
100
DictionaryVariables
280
     0
  1
STANDARD
  0
DICTIONARYVAR
  5
AB68
102
{ACAD_REACTORS
330
8F
102
}
330
8F
100
DictionaryVariables
280
     0
  1
Metric50
  0
DICTIONARYVAR
  5
AB69
102
{ACAD_REACTORS
330
8F
102
}
330
8F
100
DictionaryVariables
280
     0
  1
Metric50
  0
DICTIONARYVAR
  5
92
102
{ACAD_REACTORS
330
8F
102
}
330
8F
100
DictionaryVariables
280
     0
  1
2
  0
DICTIONARYVAR
  5
91
102
{ACAD_REACTORS
330
8F
102
}
330
8F
100
DictionaryVariables
280
     0
  1
1
  0
DICTIONARYVAR
  5
61CD
102
{ACAD_REACTORS
330
8F
102
}
330
8F
100
DictionaryVariables
280
     0
  1
0
  0
DICTIONARYVAR
  5
8357
102
{ACAD_REACTORS
330
8F
102
}
330
8F
100
DictionaryVariables
280
     0
  1
1
  0
DICTIONARYVAR
  5
8358
102
{ACAD_REACTORS
330
8F
102
}
330
8F
100
DictionaryVariables
280
     0
  1
15
  0
DICTIONARYVAR
  5
64C
102
{ACAD_REACTORS
330
8F
102
}
330
8F
100
DictionaryVariables
280
     0
  1
0
  0
DICTIONARYVAR
  5
649
102
{ACAD_REACTORS
330
8F
102
}
330
8F
100
DictionaryVariables
280
     0
  1
0
  0
DICTIONARYVAR
  5
90
102
{ACAD_REACTORS
330
8F
102
}
330
8F
100
DictionaryVariables
280
     0
  1
97
  0
DICTIONARY
  5
10844
102
{ACAD_REACTORS
330
10842
102
}
330
10842
100
AcDbDictionary
281
     1
  0
DICTIONARY
  5
10843
102
{ACAD_REACTORS
330
10842
102
}
330
10842
100
AcDbDictionary
281
     1
  3
2138394232912
350
1083D
  3
2138394232928
350
1083E
  3
2138394232944
350
1083F
  3
2138394232960
350
10840
  3
2138394232976
350
10841
  0
XRECORD
  5
998C
102
{ACAD_REACTORS
330
998B
102
}
330
998B
100
AcDbXrecord
280
     1
330
0
330
0
330
0
330
5E30
330
543B
330
0
330
0
330
0
330
0
330
5DE4
330
0
330
0
330
0
330
0
330
0
330
0
330
0
330
0
330
0
330
0
330
0
330
0
330
0
330
0
330
0
330
0
330
0
330
0
330
0
330
0
330
0
330
0
330
0
330
0
330
0
330
0
330
0
330
0
330
0
330
0
330
0
330
0
330
0
330
0
330
0
330
0
330
0
330
0
330
0
330
0
330
0
330
0
330
0
330
0
330
0
330
0
330
0
330
0
330
0
330
0
330
0
  0
DICTIONARY
  5
106EB
102
{ACAD_REACTORS
330
106EA
102
}
330
106EA
100
AcDbDictionary
281
     1
  3
*A1
350
106EC
  0
DICTIONARY
  5
106F1
102
{ACAD_REACTORS
330
106F0
102
}
330
106F0
100
AcDbDictionary
281
     1
  3
*A1
350
106F2
  0
DICTIONARY
  5
106F7
102
{ACAD_REACTORS
330
106F6
102
}
330
106F6
100
AcDbDictionary
281
     1
  3
*A1
350
106F8
  0
DICTIONARY
  5
106FD
102
{ACAD_REACTORS
330
106FC
102
}
330
106FC
100
AcDbDictionary
281
     1
  3
*A1
350
106FE
  0
DICTIONARY
  5
10703
102
{ACAD_REACTORS
330
10702
102
}
330
10702
100
AcDbDictionary
281
     1
  3
*A1
350
10704
  0
DICTIONARY
  5
10709
102
{ACAD_REACTORS
330
10708
102
}
330
10708
100
AcDbDictionary
281
     1
  3
*A1
350
1070A
  0
DICTIONARY
  5
1070F
102
{ACAD_REACTORS
330
1070E
102
}
330
1070E
100
AcDbDictionary
281
     1
  3
*A1
350
10710
  0
DICTIONARY
  5
10715
102
{ACAD_REACTORS
330
10714
102
}
330
10714
100
AcDbDictionary
281
     1
  3
*A1
350
10716
  0
DICTIONARY
  5
1071B
102
{ACAD_REACTORS
330
1071A
102
}
330
1071A
100
AcDbDictionary
281
     1
  3
*A1
350
1071C
  0
DICTIONARY
  5
10721
102
{ACAD_REACTORS
330
10720
102
}
330
10720
100
AcDbDictionary
281
     1
  3
*A1
350
10722
  0
DICTIONARY
  5
10726
102
{ACAD_REACTORS
330
10725
102
}
330
10725
100
AcDbDictionary
281
     1
  3
*A1
350
10727
  0
DICTIONARY
  5
1072B
102
{ACAD_REACTORS
330
1072A
102
}
330
1072A
100
AcDbDictionary
281
     1
  3
*A1
350
1072C
  0
DICTIONARY
  5
10730
102
{ACAD_REACTORS
330
1072F
102
}
330
1072F
100
AcDbDictionary
281
     1
  3
*A1
350
10731
  0
DICTIONARY
  5
10735
102
{ACAD_REACTORS
330
10734
102
}
330
10734
100
AcDbDictionary
281
     1
  3
*A1
350
10736
  0
DICTIONARY
  5
1073A
102
{ACAD_REACTORS
330
10739
102
}
330
10739
100
AcDbDictionary
281
     1
  3
*A1
350
1073B
  0
DICTIONARY
  5
1087F
330
B1A1
100
AcDbDictionary
280
     1
281
     1
  3
ACAD_XREC_ROUNDTRIP
360
10880
  0
DICTIONARY
  5
1087B
330
AB4F
100
AcDbDictionary
280
     1
281
     1
  3
ACAD_XREC_ROUNDTRIP
360
1087C
  0
DICTIONARY
  5
A4D3
330
22
100
AcDbDictionary
280
     1
281
     1
  0
DICTIONARY
  5
5F2
330
5F1
100
AcDbDictionary
280
     1
281
     1
  3
BUMPTILE
360
5F4
  3
DIFFUSETILE
360
5F3
  3
OPACITYTILE
360
5F7
  3
REFLECTIONTILE
360
5F6
  3
REFRACTIONTILE
360
5F8
  3
SPECULARTILE
360
5F5
  0
DICTIONARY
  5
5EA
330
5E9
100
AcDbDictionary
280
     1
281
     1
  3
BUMPTILE
360
5EC
  3
DIFFUSETILE
360
5EB
  3
OPACITYTILE
360
5EF
  3
REFLECTIONTILE
360
5EE
  3
REFRACTIONTILE
360
5F0
  3
SPECULARTILE
360
5ED
  0
DICTIONARY
  5
5FA
330
5F9
100
AcDbDictionary
280
     1
281
     1
  3
BUMPTILE
360
5FC
  3
DIFFUSETILE
360
5FB
  3
FBXASSET
360
B2CD
  3
OPACITYTILE
360
5FF
  3
REFLECTIONTILE
360
5FE
  3
REFRACTIONTILE
360
600
  3
SPECULARTILE
360
5FD
  0
DICTIONARY
  5
1087D
330
B19F
100
AcDbDictionary
280
     1
281
     1
  3
ACAD_XREC_ROUNDTRIP
360
1087E
  0
DICTIONARY
  5
10879
330
AB4D
100
AcDbDictionary
280
     1
281
     1
  3
ACAD_XREC_ROUNDTRIP
360
1087A
  0
DICTIONARY
  5
645
330
472
100
AcDbDictionary
280
     1
281
     1
  3
ACAD_ROUNDTRIP_2008_TABLESTYLE_CELLSTYLEMAP
360
1083B
  0
DICTIONARY
  5
1084F
330
607
100
AcDbDictionary
280
     1
281
     1
  3
ACAD_XREC_ROUNDTRIP
360
10850
  0
DICTIONARY
  5
10853
330
609
100
AcDbDictionary
280
     1
281
     1
  3
ACAD_XREC_ROUNDTRIP
360
10854
  0
DICTIONARY
  5
10851
330
608
100
AcDbDictionary
280
     1
281
     1
  3
ACAD_XREC_ROUNDTRIP
360
10852
  0
DICTIONARY
  5
1084D
330
606
100
AcDbDictionary
280
     1
281
     1
  3
ACAD_XREC_ROUNDTRIP
360
1084E
  0
DICTIONARY
  5
1085B
330
60D
100
AcDbDictionary
280
     1
281
     1
  3
ACAD_XREC_ROUNDTRIP
360
1085C
  0
DICTIONARY
  5
10863
330
611
100
AcDbDictionary
280
     1
281
     1
  3
ACAD_XREC_ROUNDTRIP
360
10864
  0
DICTIONARY
  5
10855
330
60A
100
AcDbDictionary
280
     1
281
     1
  3
ACAD_XREC_ROUNDTRIP
360
10856
  0
DICTIONARY
  5
10859
330
60C
100
AcDbDictionary
280
     1
281
     1
  3
ACAD_XREC_ROUNDTRIP
360
1085A
  0
DICTIONARY
  5
10869
330
A4BB
100
AcDbDictionary
280
     1
281
     1
  3
ACAD_XREC_ROUNDTRIP
360
1086A
  0
DICTIONARY
  5
10861
330
610
100
AcDbDictionary
280
     1
281
     1
  3
ACAD_XREC_ROUNDTRIP
360
10862
  0
DICTIONARY
  5
10845
330
602
100
AcDbDictionary
280
     1
281
     1
  3
ACAD_XREC_ROUNDTRIP
360
10846
  0
DICTIONARY
  5
10847
330
603
100
AcDbDictionary
280
     1
281
     1
  3
ACAD_XREC_ROUNDTRIP
360
10848
  0
DICTIONARY
  5
10849
330
604
100
AcDbDictionary
280
     1
281
     1
  3
ACAD_XREC_ROUNDTRIP
360
1084A
  0
DICTIONARY
  5
1084B
330
605
100
AcDbDictionary
280
     1
281
     1
  3
ACAD_XREC_ROUNDTRIP
360
1084C
  0
DICTIONARY
  5
1086D
330
AB46
100
AcDbDictionary
280
     1
281
     1
  3
ACAD_XREC_ROUNDTRIP
360
1086E
  0
DICTIONARY
  5
10865
330
A4B9
100
AcDbDictionary
280
     1
281
     1
  3
ACAD_XREC_ROUNDTRIP
360
10866
  0
DICTIONARY
  5
1085F
330
60F
100
AcDbDictionary
280
     1
281
     1
  3
ACAD_XREC_ROUNDTRIP
360
10860
  0
DICTIONARY
  5
10867
330
A4BA
100
AcDbDictionary
280
     1
281
     1
  3
ACAD_XREC_ROUNDTRIP
360
10868
  0
DICTIONARY
  5
10857
330
60B
100
AcDbDictionary
280
     1
281
     1
  3
ACAD_XREC_ROUNDTRIP
360
10858
  0
DICTIONARY
  5
10877
330
AB4B
100
AcDbDictionary
280
     1
281
     1
  3
ACAD_XREC_ROUNDTRIP
360
10878
  0
DICTIONARY
  5
10875
330
AB4A
100
AcDbDictionary
280
     1
281
     1
  3
ACAD_XREC_ROUNDTRIP
360
10876
  0
DICTIONARY
  5
1086F
330
AB47
100
AcDbDictionary
280
     1
281
     1
  3
ACAD_XREC_ROUNDTRIP
360
10870
  0
DICTIONARY
  5
10871
330
AB48
100
AcDbDictionary
280
     1
281
     1
  3
ACAD_XREC_ROUNDTRIP
360
10872
  0
DICTIONARY
  5
1085D
330
60E
100
AcDbDictionary
280
     1
281
     1
  3
ACAD_XREC_ROUNDTRIP
360
1085E
  0
DICTIONARY
  5
1086B
330
AB45
100
AcDbDictionary
280
     1
281
     1
  3
ACAD_XREC_ROUNDTRIP
360
1086C
  0
DICTIONARY
  5
10873
330
AB49
100
AcDbDictionary
280
     1
281
     1
  3
ACAD_XREC_ROUNDTRIP
360
10874
  0
XRECORD
  5
1083D
102
{ACAD_REACTORS
330
10843
102
}
330
10843
100
AcDbXrecord
280
     1
  1
AcDb_Thumbnail_Schema
102
{ATTRRECORD
341
1083E
  2
AcDbDs::TreatedAsObjectData
280
     1
291
     1
102
ATTRRECORD}
102
{ATTRRECORD
341
1083F
  2
AcDbDs::Legacy
280
     1
291
     1
102
ATTRRECORD}
  2
AcDbDs::ID
280
    10
 91
        8
102
{ATTRRECORD
341
10840
  2
AcDs:Indexable
280
     1
291
     1
102
ATTRRECORD}
102
{ATTRRECORD
341
10841
  2
AcDbDs::HandleAttribute
280
     7
282
     1
102
ATTRRECORD}
  2
Thumbnail_Data
280
    15
 91
        0
  0
XRECORD
  5
1083E
102
{ACAD_REACTORS
330
10843
102
}
330
10843
100
AcDbXrecord
280
     1
  1
AcDbDs::TreatedAsObjectDataSchema
  2
AcDbDs::TreatedAsObjectData
280
     1
 91
        0
  0
XRECORD
  5
1083F
102
{ACAD_REACTORS
330
10843
102
}
330
10843
100
AcDbXrecord
280
     1
  1
AcDbDs::LegacySchema
  2
AcDbDs::Legacy
280
     1
 91
        0
  0
XRECORD
  5
10840
102
{ACAD_REACTORS
330
10843
102
}
330
10843
100
AcDbXrecord
280
     1
  1
AcDbDs::IndexedPropertySchema
  2
AcDs:Indexable
280
     1
 91
        0
  0
XRECORD
  5
10841
102
{ACAD_REACTORS
330
10843
102
}
330
10843
100
AcDbXrecord
280
     1
  1
AcDbDs::HandleAttributeSchema
  2
AcDbDs::HandleAttribute
280
     7
 91
        1
284
     1
  0
ACDB_ALDIMOBJECTCONTEXTDATA_CLASS
  5
106EC
102
{ACAD_REACTORS
330
106EB
102
}
330
106EB
100
AcDbObjectContextData
 70
     4
290
     1
100
AcDbAnnotScaleObjectContextData
340
82F0
100
AcDbDimensionObjectContextData
  2
*D72
293
     0
 10
162.7615171540764
 20
468.9194741397687
294
     1
140
0.0
298
     0
291
     0
 70
     0
292
     0
 71
     0
280
     0
295
     0
296
     0
297
     0
100
AcDbAlignedDimensionObjectContextData
 11
175.4616592119523
 21
463.3454632257169
 31
0.0
  0
ACDB_ALDIMOBJECTCONTEXTDATA_CLASS
  5
106F2
102
{ACAD_REACTORS
330
106F1
102
}
330
106F1
100
AcDbObjectContextData
 70
     4
290
     1
100
AcDbAnnotScaleObjectContextData
340
82F0
100
AcDbDimensionObjectContextData
  2
*D73
293
     0
 10
126.0050264225171
 20
436.9005178231487
294
     1
140
0.0
298
     0
291
     0
 70
     0
292
     0
 71
     0
280
     0
295
     0
296
     0
297
     0
100
AcDbAlignedDimensionObjectContextData
 11
131.5790373365689
 21
427.4823515953289
 31
0.0
  0
ACDB_ALDIMOBJECTCONTEXTDATA_CLASS
  5
106F8
102
{ACAD_REACTORS
330
106F7
102
}
330
106F7
100
AcDbObjectContextData
 70
     4
290
     1
100
AcDbAnnotScaleObjectContextData
340
82F0
100
AcDbDimensionObjectContextData
  2
*D74
293
     0
 10
260.2991800312586
 20
485.333763672761
294
     1
140
0.0
298
     0
291
     0
 70
     0
292
     0
 71
     0
280
     0
295
     0
296
     0
297
     0
100
AcDbAlignedDimensionObjectContextData
 11
240.6777976237722
 21
479.7573653098688
 31
0.0
  0
ACDB_ALDIMOBJECTCONTEXTDATA_CLASS
  5
106FE
102
{ACAD_REACTORS
330
106FD
102
}
330
106FD
100
AcDbObjectContextData
 70
     4
290
     1
100
AcDbAnnotScaleObjectContextData
340
82F0
100
AcDbDimensionObjectContextData
  2
*D75
293
     0
 10
209.7246532708715
 20
441.7085880740645
294
     1
140
0.0
298
     0
291
     0
 70
     0
292
     0
 71
     0
280
     0
295
     0
296
     0
297
     0
100
AcDbAlignedDimensionObjectContextData
 11
215.3010516337637
 21
425.2056672369649
 31
0.0
  0
ACDB_ALDIMOBJECTCONTEXTDATA_CLASS
  5
10704
102
{ACAD_REACTORS
330
10703
102
}
330
10703
100
AcDbObjectContextData
 70
     4
290
     1
100
AcDbAnnotScaleObjectContextData
340
82F0
100
AcDbDimensionObjectContextData
  2
*D76
293
     0
 10
359.3373750789974
 20
483.6390626546993
294
     1
140
0.0
298
     0
291
     0
 70
     0
292
     0
 71
     0
280
     0
295
     0
296
     0
297
     0
100
AcDbAlignedDimensionObjectContextData
 11
379.7795903339556
 21
478.124737961657
 31
0.0
  0
ACDB_ALDIMOBJECTCONTEXTDATA_CLASS
  5
1070A
102
{ACAD_REACTORS
330
10709
102
}
330
10709
100
AcDbObjectContextData
 70
     4
290
     1
100
AcDbAnnotScaleObjectContextData
340
82F0
100
AcDbDimensionObjectContextData
  2
*D77
293
     0
 10
314.6792238769029
 20
441.460267442539
294
     1
140
0.0
298
     0
291
     0
 70
     0
292
     0
 71
     0
280
     0
295
     0
296
     0
297
     0
100
AcDbAlignedDimensionObjectContextData
 11
320.2532347909547
 21
421.430785188822
 31
0.0
  0
ACDB_ALDIMOBJECTCONTEXTDATA_CLASS
  5
10710
102
{ACAD_REACTORS
330
1070F
102
}
330
1070F
100
AcDbObjectContextData
 70
     4
290
     1
100
AcDbAnnotScaleObjectContextData
340
82F0
100
AcDbDimensionObjectContextData
  2
*D78
293
     0
 10
105.9467721560755
 20
240.2331634666138
294
     1
140
0.0
298
     0
291
     0
 70
     0
292
     0
 71
     0
280
     0
295
     0
296
     0
297
     0
100
AcDbAlignedDimensionObjectContextData
 11
111.5207830701274
 21
177.1649218343964
 31
0.0
  0
ACDB_ALDIMOBJECTCONTEXTDATA_CLASS
  5
10716
102
{ACAD_REACTORS
330
10715
102
}
330
10715
100
AcDbObjectContextData
 70
     4
290
     1
100
AcDbAnnotScaleObjectContextData
340
82F0
100
AcDbDimensionObjectContextData
  2
*D79
293
     0
 10
180.0100283524507
 20
163.2513740890138
294
     1
140
0.0
298
     0
291
     0
 70
     0
292
     0
 71
     0
280
     0
295
     0
296
     0
297
     0
100
AcDbAlignedDimensionObjectContextData
 11
222.7600283524507
 21
157.677363174962
 31
0.0
  0
ACDB_ALDIMOBJECTCONTEXTDATA_CLASS
  5
1071C
102
{ACAD_REACTORS
330
1071B
102
}
330
1071B
100
AcDbObjectContextData
 70
     4
290
     1
100
AcDbAnnotScaleObjectContextData
340
82F0
100
AcDbDimensionObjectContextData
  2
*D70
293
     0
 10
356.5411158027932
 20
166.0443429865111
294
     1
140
0.0
298
     0
291
     0
 70
     0
292
     0
 71
     0
280
     0
295
     0
296
     0
297
     0
100
AcDbAlignedDimensionObjectContextData
 11
399.4411158027929
 21
160.4703320724593
 31
0.0
  0
ACDB_ALDIMOBJECTCONTEXTDATA_CLASS
  5
10722
102
{ACAD_REACTORS
330
10721
102
}
330
10721
100
AcDbObjectContextData
 70
     4
290
     1
100
AcDbAnnotScaleObjectContextData
340
82F0
100
AcDbDimensionObjectContextData
  2
*D71
293
     0
 10
282.0477330510022
 20
237.0096320228276
294
     1
140
0.0
298
     0
291
     0
 70
     0
292
     0
 71
     0
280
     0
295
     0
296
     0
297
     0
100
AcDbAlignedDimensionObjectContextData
 11
287.5620577440445
 21
293.8321726655608
 31
0.0
  0
ACDB_MTEXTOBJECTCONTEXTDATA_CLASS
  5
10727
102
{ACAD_REACTORS
330
10726
102
}
330
10726
100
AcDbObjectContextData
 70
     4
290
     1
100
AcDbAnnotScaleObjectContextData
340
82F0
 70
     1
 10
1.0
 20
0.0
 30
0.0
 11
120.0791588402899
 21
507.6763075304606
 31
0.0
 40
75.25575789681716
 41
0.0
 42
63.42428376534789
 43
13.52773988176444
 71
     2
 72
     1
 44
75.25575789681716
 45
25.0
 73
     0
 74
     0
 46
0.0
  0
ACDB_MTEXTOBJECTCONTEXTDATA_CLASS
  5
1072C
102
{ACAD_REACTORS
330
1072B
102
}
330
1072B
100
AcDbObjectContextData
 70
     4
290
     1
100
AcDbAnnotScaleObjectContextData
340
82F0
 70
     1
 10
1.0
 20
0.0
 30
0.0
 11
218.6203270167171
 21
507.6763075304606
 31
0.0
 40
75.25575789681716
 41
0.0
 42
62.65211459754435
 43
13.43906321055025
 71
     2
 72
     1
 44
75.25575789681716
 45
25.0
 73
     0
 74
     0
 46
0.0
  0
ACDB_MTEXTOBJECTCONTEXTDATA_CLASS
  5
10731
102
{ACAD_REACTORS
330
10730
102
}
330
10730
100
AcDbObjectContextData
 70
     4
290
     1
100
AcDbAnnotScaleObjectContextData
340
82F0
 70
     1
 10
1.0
 20
0.0
 30
0.0
 11
318.2863895372866
 21
507.6763075304606
 31
0.0
 40
75.25575789681716
 41
0.0
 42
62.65211459754435
 43
13.52432924056389
 71
     2
 72
     1
 44
75.25575789681716
 45
25.0
 73
     0
 74
     0
 46
0.0
  0
ACDB_MTEXTOBJECTCONTEXTDATA_CLASS
  5
10736
102
{ACAD_REACTORS
330
10735
102
}
330
10735
100
AcDbObjectContextData
 70
     4
290
     1
100
AcDbAnnotScaleObjectContextData
340
82F0
 70
     1
 10
1.0
 20
0.0
 30
0.0
 11
109.1481217522305
 21
340.9571054655608
 31
0.0
 40
87.55353970535907
 41
0.0
 42
64.83765347885404
 43
13.52432924056389
 71
     2
 72
     1
 44
87.55353970535907
 45
25.0
 73
     0
 74
     0
 46
0.0
  0
ACDB_MTEXTOBJECTCONTEXTDATA_CLASS
  5
1073B
102
{ACAD_REACTORS
330
1073A
102
}
330
1073A
100
AcDbObjectContextData
 70
     4
290
     1
100
AcDbAnnotScaleObjectContextData
340
82F0
 70
     1
 10
1.0
 20
0.0
 30
0.0
 11
283.4693814937564
 21
340.9571054655608
 31
0.0
 40
116.9315520987675
 41
0.0
 42
109.549795361528
 43
13.52432924056389
 71
     2
 72
     1
 44
116.9315520987675
 45
25.0
 73
     0
 74
     0
 46
0.0
  0
XRECORD
  5
10880
102
{ACAD_REACTORS
330
1087F
102
}
330
1087F
100
AcDbXrecord
280
     1
102
DISPLAYNAME
  1
Imperial24
102
FLAGS
 90
        0
  0
XRECORD
  5
1087C
102
{ACAD_REACTORS
330
1087B
102
}
330
1087B
100
AcDbXrecord
280
     1
102
DISPLAYNAME
  1
Metric50
102
FLAGS
 90
        0
  0
XRECORD
  5
5F4
102
{ACAD_REACTORS
330
5F2
102
}
330
5F2
100
AcDbXrecord
280
     1
270
     1
271
     1
  0
XRECORD
  5
5F3
102
{ACAD_REACTORS
330
5F2
102
}
330
5F2
100
AcDbXrecord
280
     1
270
     1
271
     1
  0
XRECORD
  5
5F7
102
{ACAD_REACTORS
330
5F2
102
}
330
5F2
100
AcDbXrecord
280
     1
270
     1
271
     1
  0
XRECORD
  5
5F6
102
{ACAD_REACTORS
330
5F2
102
}
330
5F2
100
AcDbXrecord
280
     1
270
     1
271
     1
  0
XRECORD
  5
5F8
102
{ACAD_REACTORS
330
5F2
102
}
330
5F2
100
AcDbXrecord
280
     1
270
     1
271
     1
  0
XRECORD
  5
5F5
102
{ACAD_REACTORS
330
5F2
102
}
330
5F2
100
AcDbXrecord
280
     1
270
     1
271
     1
  0
XRECORD
  5
5EC
102
{ACAD_REACTORS
330
5EA
102
}
330
5EA
100
AcDbXrecord
280
     1
270
     1
271
     1
  0
XRECORD
  5
5EB
102
{ACAD_REACTORS
330
5EA
102
}
330
5EA
100
AcDbXrecord
280
     1
270
     1
271
     1
  0
XRECORD
  5
5EF
102
{ACAD_REACTORS
330
5EA
102
}
330
5EA
100
AcDbXrecord
280
     1
270
     1
271
     1
  0
XRECORD
  5
5EE
102
{ACAD_REACTORS
330
5EA
102
}
330
5EA
100
AcDbXrecord
280
     1
270
     1
271
     1
  0
XRECORD
  5
5F0
102
{ACAD_REACTORS
330
5EA
102
}
330
5EA
100
AcDbXrecord
280
     1
270
     1
271
     1
  0
XRECORD
  5
5ED
102
{ACAD_REACTORS
330
5EA
102
}
330
5EA
100
AcDbXrecord
280
     1
270
     1
271
     1
  0
XRECORD
  5
5FC
102
{ACAD_REACTORS
330
5FA
102
}
330
5FA
100
AcDbXrecord
280
     1
270
     1
271
     1
  0
XRECORD
  5
5FB
102
{ACAD_REACTORS
330
5FA
102
}
330
5FA
100
AcDbXrecord
280
     1
270
     1
271
     1
  0
XRECORD
  5
B2CD
102
{ACAD_REACTORS
330
5FA
102
}
330
5FA
100
AcDbXrecord
280
     1
 70
     1
 90
-1506045146
 71
     1
  1
4EE81308-0C53-49A4-98A8-DCF03B25DB39
311
504B030414000608080075454C4869BC376113010000A80100004F00000037313131393542302D414431342D343431442D383436312D3237394436324136423938412F4173736574446174612F446566696E6974696F6E4974657261746F7250726F706572746965732E62696E8550BD4EC33010360C200606241E8081AD32
311
B1133BB1911072EA868905C48CDC60DA486E52D5895833F22CBC4F9FA79CD35474E3A4EFEE7CDFFD7CF2374268371AA4E804D083BF84F8646BBBA9CAD7726957069D858A6BE6C6DD4256684E1417335C9034C76C9A312C0905C7391532576946F829F49D03B4FD349D6BC3CAE7CA97D63953DBA6F35750186FDCAC4C0BB78C
311
BB0B43170885D003D081F061D362AF2888FC02988FF5FDA3F1DEB60F514629953C27586990C118D558B094E238933A8D559A4BA1A217EB9B6E535A1FB1D94CD084084CA63CC14C2A902E94C07A5A90248FB9CE1319B5CB2E7CCD759031AF4DE522128D12DED7F5A2DF02B9ED27400FF6F6F3F73ECE0FFC1027C3D4F1DCBEF2
311
CF9E5F504B030414000608080075454C48486C5A9209010000300200004500000037313131393542302D414431342D343431442D383436312D3237394436324136423938412F4173736574446174612F496E7374616E636550726F706572746965732E62696EEB606060F80F0540260323103700495E20ED9E9A975A94991C
311
9C9C919A9BA80214307175B5303436B0D035703635D635B17434D1B5B470B4D07571763330763232757132B6644768046931363471713532B5D4353531016A313332D475727372D13534373670367376B67474B5042A03DBCBA019D37FE8ABC6157B20CD04146B0062181F4C03F940F0C11EA29A8141C08141002C0426541C
311
106CAC2CA046088033B02A030AC2157C6006F21A8018AAF50194E6010A610250382264E08660284CD9E98021862280A91564B406929A0FF62C401E28B6F88038B83CB1243943D7A928312F25350524A30D440D57AF3600E9D055FF578502858034988F85812C0BD608B20E06409AE17A01504B030414000608080075454C48
311
88E57597CD3F0000904100006B00000037313131393542302D414431342D343431442D383436312D3237394436324136423938412F5265736F75726365732F34454538313330382D304335332D343941342D393841382D4443463033423235444233392F7468756D626E61696C2F302F67656E657269635F706E67355B773C
311
D4FF1FBF73E71C0E67EF7576C9DEF3EC995D46C6A1EC5046649CBDF79E192942562825CE965D8A868C2842C8DE9FDFD1F7E7F138F7078FCF6B3F5FCFD7EBFDFEC41B196891913091804020321D6D7513FC77D8C5070EC3FFEE51B21F068154CC75D455CC028A3EA68992803810109FDDE5D5CEC5521B28A1B422BF80741695
311
D5B529DA1C2D058AD2388BDA9F476F7C2CADC939304173DBF48A452BF8A700C0C70C3D121C1AA15A5270C22E2B9E28763651F7DA0D12CE11077B2ECD0D560B5E3DE2368B1E65C5E1C87384A4CC5F2D9FB8BE39E9B77C753783A37998F5CEF1B4FEE553463245C9712270880DF339E0B882A6BA713D865F6F384C842D440934
311
EF264F4A304F8DE4EEFA1E2BF5E2D91F5ADD9613D6E31DDB33ED31DB1D7916CAF091286EA3D31B9CFECB78BB0060245B943C4C040119FF780A74DD308BA9D028678674EB5504ECF284EE814DAED07440BAF649BE4B55DA2890F4D73E2D489A59EE54FDB0A85B59F2F52C4858A02705C4815A792B0C4A996A2023ECB195073E
311
115E3E3647F64243A8338F2000BCB58DA5692C7E7C3D413F963FEDF3CF00FBB0F831A9D51360FECA43819F527B89FA260EB63C5DA676830AA3626A3693B23F1A17A0DFFCE3EE164E31B5365EDF0C89EF64D8E38AB0BA9A1117D7C3A0EC44F44F4023095E80BA610DE336D0F99593A88BFC5306E72DF98F7FD132ED95878DF2
311
964EA7E43071359FD83B2BDF9C6B5BDF768F0F3C0FC351199526F53D9460A34511F75D1B63E488178569472C91A94497807A3FD4A390C6558F26D416365C3656DE6E769DA9D8FC73774E1709812842DD8EF96AED1960F79D21B395CDDFE6F92CB4EB962A4668C76990E2EF29798C8941D67DA50F4A5F947872460F1F6FDB79
311
4E8A29FD7AC0C0D6E0714339CE258FB17AE8535221E3464A10F29A0BE5EEECEFC5675926A89F49EB14E5711894F6586DB5754EB4D5DA9C6437EBA57DB97A24F8B8A8DB295FFD73266CF57E82694DF5166DDF93573AFE9C9C5EB05F8FEF8E89E0A8917B0B3724DB7BEBB53252581EFC3E38166BA131A3A5B42FE2AD00A769BB
311
FA4458D2DE7822F8C4F63D0B8E21B285AE13325F3410A435C648C9D91FDEB109E73CEDA7BC796961AF79175E1A3CE4C5E8B0D009B0C9E29EFD98BC8E97554E3D8D838424E270F7685226E5AC268E021EDE3522D583E8F20C0BDE2959EF5BBFEEDAB32FE9A3ED0E39F211A86AA9DEBFC68182EDED132AB8BB794442D2D7EA9F
311
4D8BFF52BC4D55BB165124EE90A42D101E67BBBB292FFB4F66DE5BF2300E44546757DA7CEF8932BFC9F92A0707953491A55C5A5ACEDABD9FA1AEA01BAC3DC5A24E22E7C47213493996EFBC369D086ED9397C9BA6C7F9855C7BD5E15BFC8C53DB3D2A4C5901A57ACD2FBDF4D1676E95338B2C2BCE65FDA4C64F5FEFDC7D9CA5
311
AA1FCF11E193F2FDABF0F4916BF13FB916A224380E6462A9815F2300DC49CC4DF8D055CEF76462F4B7A7ACA7365C2707891370BC1D0AA6203C44CCAB47084FEC057F27FFCD57F89B8B9852459798A675C66BD7CE572CAF71FF7E6D7ECF7BF62CAB7B3F1107DCD04DC55A3F9961700286141C94A4F771FEB2BCDA2DDEE0CB0B
311
AE402FF1DB0100F8E475DFFFC074DDB4498AB7D186A7654DDB1CB680D703D47CEB4E72F8CB13D86A4AA68116E26387B93FD6738779B34FEDB8E517EDF2BAF28D9BE93A1D3A164320E07D42E514725C29515FF361754213EDE06B079A2E99EB1CA82A02019EADEEB87B9AF005BD04BBCECB14AACD6B24EFBE482194A97DD324
311
00685FF1FEF1544D1B14EFB1E7F08E6D2CD2AF52DE757F35F5E62332EE88EA26417AD5C3E0E319D68F25414E6D672BD4522B278C57D18F0113921C71D96527E091F00CEB15AE23D24667369BD3CEFA10C7549D930890BA4366F4EBC55F01F746109F98ABCDD5A3EE06619C6AD78AB33E48E4C9BD21BF7478B385EC05C4F898
311
7E2C1BFA0A60EBEDAA0AE0B015C2720ECE180FB6F2DEFBEB822D96338C9B63822183BBF52FB664A7AE57003AABCE512BF77E7E31BDA2E739AC4C131657DDFE5225E900FB56CC01CDE808FA4A9C9DA16AC679656BB64796283D89812B8F91136AE18EE5EBBAF47A73BE3C153EB5D4CD491B4BFB4FE690A4CF9ABA08C0D8AA64
311
220C438C96EA6CA80B58FE5761E697B3A292EB9FBDA502FA863E49FE694ADDFFF9D62C520BDD1A22014147A0903A05B9B729F54272EF83931FEEC057BFF8C8055C279EAC5C0011804828734024F6CFA319C9CC6867C727184465CD9BB7ED386AFFD96B294A85E3802FAE47244602D8273615952B98C4F23F7EAE4463D9D638
311
EEE374A20959E0FE519C4CFB0FBFE5DD80C2AA3F9DB961D1BDE57E67C9BB47B77FDD74EE3094F5DBBE3EBC1FBDB7393F5116263009E2EFE1AF9A221B2AE234C902BF70E9F280ED23E73908361565964333A3F01D0B006AF32FB21AA1316744B489D5A198E85299241735BE559675130955C902A8ED761FC0DBE337A9F91919
311
AF5CE32AF902ADF9AB2615E00E8A94586BA1A90839B61832FF1BFB76D2EFADE6DB1BA04CCAD3DA649E7E2A0219F592E22F2AD54847EEA8E42271011E9074F8F3DD9FBA6CDF88FFC9FC7E811AD1CA8F4557CE4AFC7BBEDCF0114A48689F20A584520C74DA8127124B767E2FB91A6B186246727BE63C9445BAE02088D58B8EFD
311
C0F1072407CD9B89A13F6303B4A928F593AD489B58E6869325790ADC406036C591729FE14021F94B7796BB11848D463536A092A26F077F94639F7CEEE2A724C66EC885F4A24F8B8A0AC321F8FD149BA529460FAA34E4663C02D41FDF80BCA222D42F0ABFF8490F4FA74C673807C2051D8E467B47B616072860069A9A303ABA
311
9B319D58404461401B0A0F9BE5E1E151C14BC33B32ABE03DDE91708DFAEB15E7C0D593C86BB7D7EC17BE56E57975F077BFD5525F3A1A361D584A75E08CF29FC7B44B2B3085014F3A5A14517377C3F6B8F37E59514C3B12F8AACDEDDA4DFC49BE5710101534CD6FB6DE15B50F11A09472AABA727F0C49D9CB906B158030065F
311
48EB3625E010CEC1D511D0053474B11E6A4F01C0D6EF1BED3A944FDEC70E0DDCDC756C86545910E0DAE3BE3AA9A404574C2995CD5CAF9549226BC94B4F4F0F5F9086F418F6B32346464610D8BC7391D3C3A3CCF04CFC1FB2A3A3170E369511868F14EEA4E5E438CC73DB1F3248AA94B6B2FF33B222FF3D1E7BF146CAD22977
311
0158063BCE4F5391964DF62F7E52A7BE0EEA829C9E13C4C147D6F93FE59E111DAB5E4594D6F3CD1AD375EE039930EFE5AF2BB2D41C83C7DABD8C659BAFBE8FAB392CA634F3D15C1D945DB4588D2B0824A4EC928AAC565557CA2F0DAA588CA5BE30B3A8004F7BF005E96CBF891D7F18112A3619FDF530DC8AA64954258E1811
311
789B5189B49B4EB53F5F89F7D37523894F3EB57B373763C91E502F52CC99EB7BDDF933FC324C4FFC2561DFFA7339FAFDD0A4BFBE6D3A8FF9ED1FC49898139864602458968913181918F719CCF5A68B2EE9C1FF050E34E63107003B8120FA982C21B30A874E4F5E4B38D5A8290C4B8D9BE48A0BE31EA995BDC37AC6DE90BA17
311
D259DEF53605D55922FEB1855D915B659FBEB350EE0DFB2F9F766E1C84CC8964B75D08667445EAB966015F63A18A9E0A325C1B3DC628C0D3CB60F767FA93CC65F25458BD23C3B312716E5F40E5858AC06EBA9AB14F95DB99147B832069201541D09A0D856E12C629CF32683760EE855537D1901988D5EBC156676C7DD51D72
311
07CF3267AF1D76C2AD867315E44618015313A98B19941C696FED3461CAA9B5415F918556D7802EDACEFD6B2E45853A9735DFC9DBF7E440F9319F8B6805A973BCCDC76C069A9144E51F187EDCC12FC31B5DEAAF0A76137199B106EC84ADA6B6EE697D4E6A96E007417F4E880E8B1E89B4BCE9D81EF611E2ED8F0C1A6C25F620
311
FAFAAB656A7C42D464880E8AFAB0E0FC8EA38CA9A8AEEAEE3E4648BA4680270A89743CDD3E6C6CBF34B7B640EFA285ABC7EA0A1E28F3CC963D114A80123EE66D0AF7D5380EB41909B605AB4765B709B808590458157E69BA1378FEC4B48CAF6A730E3BE3C5EF2DD1A5EAF94B1DDE50CEB55DDFD7EE9A16747FA4B223359FB1
311
FCC69E1194892BABB93A1D5C4E807AC0EA2E30180811E77A2291F6E7F7FAA5E0F60215BC6024E48DE436C511F0628B8CA189982D4D83CCA17D305A7E923C37941CFDFDCD93ACAF735EF5F0E61BBD3E6C41A59B242790D3A3BAC7064DCD89AA2E37214EC839820949D5CAA31E240D2948E48F690298974A96BA9A8432BC90F5
311
071D6537C9666EA4564796B7AFFFA548077BEEA75F63083435074BA182F3699557397F71548383FDA8CA34D99B981E72835ECDA5DDDC151315173D05A21F651AAF8524E88209E2E7A737ED1045800CE3390050BCFB8BE588DF111617874C62575039CA588EEFDEFEFE319B739DE2EDC147092A262611E159650E787917885E
311
F08F1F51B8F2D8A71D60B58B190FEF9541A1BE94BC19FEA50784DA1419FE4B0FB51B8D36B5FF8E1286FD8AF42B91E59A5F1CC4D60174E764045FD8C57B18209B217F89A62252BD20BE0E63E12B8E8F029FE19E0E8D0870F58721A557082250D5424F7909369376E41666C0EE77CD87CB283F661D5FB6D0DA023CB67320A20D
311
C7BE661E9E1BFE5463085C557DA1FF9BE835733766C3D139F2CF9E2208873AD0EB4814DE9E6BF2CAF81614D4D43906ED1C05A3265CABBFE192770FC2F64F940CB6B17B5F166F133C9AEEAD2641807C3E69515171DD74C4A85311513D6EC9530B3B601B6BA3EBFF3B5C3D2F7D69765141E345F75433953D013ADDF8F6AA7DC3
311
F4A7563FE5C7D367937E2900D7EAD0F9FC9A4A1A9B5BDF1FEF08532660C01C5D6DE22199AA774383E306DAB87E301ABB7D213887F9869D4942D0D71E94B27EDF216A318BD488D45DF84529EF575AF3C3938C0AAA0215B01994153E2054A0B894DA5C784980633AAD48576957CF4AEAEAFADC7C587368551C73DBE1E57C58AC
311
713303A8BFC258BD04B51724459FF9E24C03A81E0E0679CEB9B348C0DC998FEB9C6D6EFA77D247CC8F92D3848599ED89A23218D0636465AD1CEEB7DC140D7426F83491C4E8E8281C2FB35240918FFECE880CA2A42D70E8B20B34DF5221C7DB0CF90ECCB9C745B37A47E9B716FF7A97B7A252C1F3814DC7B1E1A7F72B8751D5
311
24EF7CAE45B0C73B3BE7D08ED39781B380DDFC9AA4A4749C9493DB5BAD07A6EA6C092FBD0E85DB004DF06B8C9D3089C5320187E4CE1846158C7EA7DDAE8AD9AFFF21AA3A1026BB06A259845E8232DEE62811A4DA9CEAB3A4887320B76E2AE5615EAB7BDF738CBDD01F1E64064BC13D9EC53576751CA8CACD58B3CEB0E6CA58
311
5BD089B2A59B9FC101403387AADBDBE70586B93D64BF3AD4453EF9C3B6A93817E8346991798601344F79A83C51F3D50F7BF2683A3605F51A72449489E0EE6169C749C60B1035651103AEE24D24E51A759C840DD3FC6504DA6FE107510E447B43461C79D22970B75DE5E1BD3007D1AFC619A4A4A69B5626AF5E9B8374E20677
311
F77E2F8E73DF868E8BEC7EBA7B6A75EEF7205E1AB9486CB642741D6E03FF13FCCEDB1C4AC129886268B01CDF4B124AF797CF784F3C6DEC97A17D4B558070A0F1C04DA4FF9BDBF34159AEFE958479824B3F58EBD1E19088A2AFDE501B6F2052368A3FD0E650A179EFAB1561E1D27527077136E652676C3670F42DCB3352F48F
311
6BC86D2C3B0051727E41A0A4DC6CE2BE9D47F5CAA2935A3C0539AF080665997194ABECD723B08129CC5B6B21D2E7D54CD4D12610E7E9FB8306771A89576C7A982002775ED44F3F744CF21EEBB27A631671D921938AAEE3EB0D19CD1E083727F607823E817BF599DCED5394E37EEBC2E88782E638920CA641EF74D4CDFCDEF0
311
6F4278ECB18E31E7E9876F2D783C8BF429C75395F57E98C2B495A3DA077EB3AC3C158608B6B57FE3EA48484D9A480096FCEE0DE880950E7E5A5714131C5C41AAA29FD19AE81AC145FA1B9E85C7169A5AB837B213493DF7E9AA4B5FBF9CDEB36EBD21EF1181B7CF7366AB2A951D01E37AF4EB835D1BE8C117CFBE7625D2EBCD
311
B0B20C5A4B45CED0BCDE3EE8DA9DA78C2E21DEAAFFD1197E463C33CC6A80FB785669B856EFF7A8CCCA2841B5A5369173320B1170C368B2748D81062EA0296E5E2D95D7667A4A46D98A6FF475C76AAB0A8C8D45E226FAFC9FE0133EA9F60111F99CA81ACE03A1D14C89E8B0D69079C91464FA1D99E651D0EAF606F345C42A8A
311
1AA9BA391031582B96D5B4176A77AADB01F12FD298A75DEEBB2C82F0B8650E880722F8DDD90C56A7A058E5FDEF1AC93545BA27367C76F5D8F9690CB6F8DAE141EDD7971F0FB548A2AE435F224D6E5954CA155512F7332029D5A1230854B79F258EC5FFDB09F5F6343A8EB193229B7F7E79B3E48F8E183860B38C8269D1B537
311
38FF1E0BACF6AADA6D4869E9DE708E79B5DADCC09B1BC76F649731CFAF59A83FD8BAE4C749D66FA87A3810D4D62FFE826FA400C0F325D2BC0F3CA35F5847B82A2ACC7961745C823E4D863D54460AF792CE6F79B5C7A33B25C3AEA6CDE15A919B6367D781E9D44F61BF828672594A3E1D9EDD6DF179A81F27EAC05B936575D7
311
3E05C209DDD2115CFB705DF9BBF3C911589B3640735E9E618FC9C36A7326C82B2205E244C55D56FDB9D5DC93CE958D4BF8174D2B3DA54CB3C09F2C2A6DFF73D23B2197355761AD421EC581284A7EF8DE2CE3497C0C804D49B41DFD6A7360844E5BEFFB495CFCDB97A4595911CDBA623274CE852B5E278AF0BEB1770E9D37CD
311
977B2766A7DED0E94B840E1E95E8C77DE5CB6354AF7871427C28ADBEEF7BA0A28E19DE9ACD75F379FE373EAE6DDDAE3834692F9C2B03B4FCA8FCA9ABE8EEEBEBB725B88A7C90941E850682CA04061A7DF0CE82ED49BFAFFD42C309818FAE14755CAAE78B0F73243ECCCAD7DF58FCB9CDFAE7A4D3E6671A613639130D056C83
311
83C8F4FCF4808C331E544DD26E4755D09EA05253B3049A1E32587CC25D72E073E2CD96D04A71BBCB0038FEC3F53D254199C3CDC67CD66640269431860225392B2CB3ECD0B4498AAE78BA1994246AE1EE78F2EDFB79F6C6CB6B5E279C4D373FBC21CB2698C9ACBBEB6A4BB6B39E16AB0E421CCBFC7654D81ED86022F9BB5221
311
46F9F4772E2D0E4FA70120C95A85A417BF5078B232F4754363EB1750B2AC2148EB46B1EA72AD9B4D23ADCBC589D70106C3EC2ABEEED84DFE28E718C6C83502C28E9FDD3B09DA0A6F6F7B72B706A31C9E2A331EE70DA56A083D2177BFD63C55B11D8D949FAFCF90B23A1E24B9B5018B9A17E99F2890EC302F330FE7936E2C23
311
F0D237EC8916F5166AB84B62A21BB0B950146962D754F92CC2C8877BED8FC7B7B25726DD19545392570B3A2C66B58F027BEF412E552D12A588C4A3CC5C3193FCB3485EFFF700D0B9EEC077754A33DC1FB9E25AF814628F91DDFECB667D3F7690803F38D13F8AE39353523BB08FC6760144AFA2CE28236F65EDBB3D5F59A57D
311
612B99E3D7E5F8A851666BF9B5A6658EFC96EEB37A378ABB0EB3FDDF1303AF32C41BD1C8560745D7BD81066B0D6313359CF488563D3BA3F8E2185D1FAA3EBA1397C9D0E3DD232180A4DCADB6AF25DB3AC3CC26589C8239E66E81547BC7E2F328F9884764CA37EB5DBE390DFC03A5246B456A7C3684C4377D0EEF9A350680FA
311
9A077E8B2957B489E09AB1AD41316944C2254B5984830F691C93CAA767EECF976FA5647538830B5E63236A6F0365C1E0F3E327F24FE35EDDBD7360B0F7374837409F7A6311BECC12B7026D4FA1AE204FA3F5FE904B1F420C7A9044AE58E403E7C4848E7DA25DC9EDAC79DD756FAA26B9EA83ACE8A214A2612A22AFA19DAE7D
311
BAC5F8CDE1292A485F98DAC731A29FE01A3966E96BCB9FB5A4C8830E1B9AF0C54B87FBE221A097036E5D28D1F869F810C06A9BB0AC0612F69AEBAF893C6E7AD59460208BAB3A6B09CA4F6BDDAB8CF0D1F84B72487498395A70DCD754796E271099A567A55CF242BBED64696378BB6CF25EF0FCDB589F3A82F1116D010A9AB9
311
FA4358809EE0C973A2B4229BAA876A70B03AB49CBA7FBE71DB1832FFD32F9BF2C8E98075CACAFB36921235D0F552B6A67E94E094097A5D7DF681B40623DA535ADA7A9AD8E9A62407D7C9A5AE51D62A17A83A23728DE86BB56115804D3F2675F2C6B87541A0FC497BF0CA86420F558C9859EBE9FAD62747E323E3AADC03FDCD
311
DFE7407B09DA90B44E3185723C5381EAEF589765E2F7A099BA46695BAD60CEF3491B8A171F5F56444F7CE9455312C3498C74173AEA0214EC029833B34B650CBB5A5508D5091665309642791708ECF27CF11DB3D797D6CFE474453BD4BFADB768094B2147814D81C7CBAF8228DCAF5564B5891F5EF6A860EB2E323CB82AB868
311
D8EA048880D63B0DE5341F1B3D53297B928A11E15F25E5148990F710747C3509ED14909C552EBE3973246FCE55D00564D8310BC3EBC5085D08D806799B77D6C57FDF5E55837F9E934F09C03C729271B64F12D0A9F9E938107CAF7BF1EC8CF1BB9B42363D33070F4CACB425E605DDB0A34A12BB936DE286B9887A4E2E558F08
311
86498BFF49C311D96C277CF6A9FC0D75AD0ECC5226D7E0E3572012E56D7FDE4410CEC7A6D0F997F225A2055B8B92E3956E875AE4993CB3D4C9063AF98FD45E1BAB165640A43439A2C9181A7C355B297C0A0CCFFAE19B6FA3C2BA238A885FBC98B8F6DAF4B94B97304878DF4D8BFF6A4AEDF79E90ED4E68F00CD7299F4E0D83
311
E35601AF0CBEF18C1E870E74758FA91F5131075004DB3CFCF09AE1DABC11957FD9808C92E8A678CE9DBE40DDA0E0D1D505AAFBCBA208232BFB6FB3704E8985E61ADE53DE74152F5C7DE74B1DEDCD37DC3E8FB30D7EBA8B9EFFC3606BF90B8D438279CB7709FC7C00D327F41817EEA71CD9E49FE9C8C9A81C70915D9F0F1595
311
8EC5AA4C3BBFAF46986B90F188BDB24B89DE3C6F29EC3E6F66D84856EE96A35E657CA41B41EFD8DBFA16AD6E91439EA92B40B21C053249F51AE50EB0B24C770FFAF40DF12C8436366819C48E36547D4E7B72FE2BBF10828583057814A668BDF183F6B2E58DFB151103E56303E63D00F39C27C4661605DB644D19175D02E3F0
311
241E8FC3458D17AAAADB117CE9EEA690D0DB01E634878C04C2C9310B69FCAB831151E3AD293BEF6E46B0ABCECB50F5939B39C613D41E81FAE8D34CAE3C4566B761D37185FE864AC32FCB71AEF39DAA5BAB88609BB980CD2F07A8F941653B529567726E2B2A58D079DD57E1E5E31426CF184A04D7B03B985F276D47406AF276
311
FE32E3328BA866EB1FD39BEF57863A317634AA5FE467409B3873F5069EF0D71AF00AD189D17BA1974ECDB2D623E9E14086386A6AAB5807825C37B015BFE892AFD154920EC437EB945D958E18622E1E0FE2FA06557CE4BB9BBD05A2D40E774DA2B65473791E314B7D6C886820B2FCFE4AA272B3B8B15E7344A145E8AF919B54
311
54D89D36D413E87211186BF6F645E5EC94DCCE8E1C799022E4EC9BC86D7A0F2AFB1FC4B2CE48F84B3F49ECE65BAD24CADCC07EFF39AB06BE9E6B27A059938EA7208838455383DDBCFCD967DDE4650EF92A14FF933C975DB20BD7FEEBC4487576485963D757D16340D9599FEB362F775F38CA4185A86F74B629C81B133644A3
311
B18FD056E997E0734F9BE26D11C0AAFC669E2AC9FC41D281F8B2E1C35AE27BCE05F3DA295488096688719D974DF1B5D182DB7792288697F8763CFB43562C1CDEE11C4AABD5C22B6E33F6F389CFC3477C5919DC0D533F8A7A1846B7ADB60ABDC26C43D0CFC8910B7C15EE22675BD02702ED39DB77A87A192CA7A543E6205B97
311
9B9F5A6B512A3CA799E198B2D5797C0AF8D1D872CA455D4D431A7879D4DD76110B5FF7F4176B54477A9EB5E4A5D11214FDA585F0382751D8E2582BA5D2075053298FEB8F1537304E32CB22C2E2B693DC0A760B1DFCA751BDC445AFDCBB12820ED85F6D5298933C7EF1211E9E057684056CDA3FEF3BB6052355E162DF27C59E
311
965A8DDB7F9437EB72CDDA3A090DE65A5B2F50326247B7EC67B73ACC7047FC9B353D6EE990F772207C6EC52B39DC2F3C0754821DAB559F7C1809C7D0DD5B0499D0442E0A6E391B3D5DB46D11E731E6794EC77523FBDAA242ED67F9FA1FB684255671F63C9BCFE6E7E896D51001A6113EF2298BA494E0B0980D1FA5B9D60796
311
554C02256B1E0345FB7C6186B6A19D2DCA270416262845FA4F42DB5D9B0A0B6F07FCA2E56C242522E001E0CEB734AF310FC8BFB57E38E03AACE93B3326A2197891E68452B26A6307FDABFEE0223D3C03C3C73D2D5BC054C8311F12004CAE488E5C29287F8156A2CAA4AD0D7BE6B97264E4139F437CE73ADF52E5134C52B819
311
777C18B323A5924E4F67AFD13B1CDC3A61793A79FAF5C0CEB718E441071E797C6DCCB9EFCF7E4A1E9F3DF3C2F9C9E8294E9586868788C972857FB0556D7A26941A7EEB9B580AD78EC40B85DC906B4120A563CA3B87797ED612D3B035962BB75F6515A393F4CB057F564CDF54F2E5A024514E6A1F901DB80C7E70B1FC05E356
311
A7E72FABF4775B3E3FB8F70A2A8E7B6A94542BB304157978CCC999E707A29CC795E67A59CC546A5D47B368954CA7B6E75EC9E1F6FC73CE3B4F71F8CB1A6B15923D61EAAEB14626AAA9D04A26EB9C66CD1BE86CA31A5D8703DE04CD1EBCE4F5CCB62F93909AD11E55799A781A956ED27D3E738F4538CB04ADABC7DAEF20BC35
311
BA6A90BCC1DC61BA05F20D8832FFB9BC9B15E2DB838A0AFBB7E0C82A562127E0446894F427794C3037186F622BF24DE1B00AA10A23BFA47B2A180D6DA5AD6F7326FEB8C100C2D7142EB2A0B2A9D1008A09BA343D70E054AB69E2A7EDB783CBD92537FAF4A44D1296AC2792729104B3276C276C951D0CF3CF3F1E6B017720A7
311
B8505A5FF9589365979678C36F1BAF759EAF57C60F1FF5FE9DCF5F8E764FF25A2D06CF25117A8FED51884C13B2B750DB0E4F5E3D64124FCF11F0AD8F1CC3B3DA4B38ED22BF1CB2585EE6BFEBBA63FBFD44F9537B9B37BDD6B358720F98A8125AED4349CCFEB0E135F19E208A04CA7E2B10711185D72E381F448036EF57C9F8
311
74E54A971CA37A639E986AC0226DC5AA00D5B14FEA9192234B3DE617814FC221C92F33F1D392F297731B567FD98FD91D989379AF567A65B8ADF177591DB90FBEA99BF4ED11B16E50A0AB1DBF1156D034BBE04D69D08F939D8E92BF525A1DDAFF80ECBC95D8F45D3FDD289FD23F7D8B452F8EBB34EC082DEEE68E18EDDF0720
311
60FAD2AB1504DD4879BF67099FC58F6E9DEFBF645D16334A3E9A127C6F1AF6132CF287E433B43A0EE93812B4AA0B194E03EE3FF91EF9C6ED0074A2F6EB18A96A7C9890B1FCDA1F2095E944DB911ED54C60DF16FB74C8CE9BDC7C54C4F14078CF73C2FFF1F1BBCCD7CF64F71407EA1683DBC410D226627F66E509060D5C0AFD
311
611DE681D509DB8DD12FB1265B03C6F5C55FF4C30BD94187FF692B4F152982502F193098A789526A038AB529A52BC0DC4FB6285CBAC10A8B8DB75DCD9BDABBB221E27D1F8DA9F5EE5926A1C8AA9BA9BC09239C6A7F12914EA3B59EFF7AAEC3FFCCE56F1C5C2980AD072793527565E774F4631DB178CEEC691B1F367BEA0CF2
311
907E1D6B854D527065979DDEF002D8B2ACEA7CE21AE297737EDE1D45B31233B73FEA35BCFDD0B09721FDBAF6432681F2FD10C3E9EFB246FD6E854B344ACC9D8A0EEF876A7314B49B6A499FC650B099D650DBFEC7638ADFD245E2B7839DA5AC5F7D5623FC0ECEEC8653FC9B2BDD1AD4D00A566FBA7186DD3C9CD26512551637
311
498CADB950FEC71ADB9A5524285DE328B8EC7EC75D2345AEC6A27C42AF6D9B92155315C80DBFCABBB7DA0FAE425C4FB896B15C9BFAC4FE67DF5A23D30C93DA4D8F36FB15D100050DA6062E22AEC5F4DAC4F6FEEF97AE05DE63C6D38F9E068A20BC5E3B6BCD75320C5090924E7F93640A7735B1A43451C2D91EE62C6238B797
311
349E59890AF3A520DF4A87095F3ABEC2E61F0593416CE46CDCBE0E00E2523FCCD04408588B5B6C9DB6459C786CE378770B54F51DA3A5E1DF2A3349BEAAC234A6CF8993B598B3B25B4B113E353A4D750FA7534749430F3EBF2512E7EA3FD43C6AB9A1F765A58463B306721A15D224FAFE8C6F5E3432D57EE697DA0DD5A9D486
311
6A8BCCAAA9DFF1F06047851408FEC060471D0E3EB86BFAF46E4B5E60311DC3E3CEA147C75CF971BE74689507154FF2D2E92F15CDB2B9182B11459FD8ACAC5A85F174BC94A7F4EE4C4F5CAFA7C02E37BF0BC77B7DCD0C047BC316F562A01A441AFA7931CC84A28CB9F4AA367EB515778F29BFE61195FA671F4352E5E46E3A64
311
773F1F76EE5EB36D7BCE9BCEAD837A4D77F8DB8C92AEEF6711920D7C7D0F76B0FD0EB7AB83724CD35BCA7D36DDDF5FBB7FF6F04A91F3E2BB3B8F1A43CD659639507FF6331C5F697BCC782AE57D757A27D97F1AB9E0AEDB43F92F1B2AACDF5FEC8ADBAF9F814E2027003BA2F9E144B1938A7A04050AE5D953B82C45619165C8
311
13A10E76DD6906B3C16438064D14CDA713AEC420034613E1AC7241904A49FBF87409AFB1FCB9B72FE7933A87D8FBEDACECE4EDCF6A4FE9FB94D5DEB74FAB7CFEAE17EE965DF980DCCA2D04134994F9A2E94D2265DA4FE6AA7B7AC15FACAC2B5ABBCD7DFF542C5314FDAB2E1B9D8B65220B8E2B638BE008E8DCA22678C820C5
311
053664D15E89F2D735B51A84955E81A443545E9FF787BE0FA700A76D136C27DA179A7C6E8939E01BE756E19CB292798063D8B97F44E8A27BCF3A614FEB8BE974A718E86F7EC99B53CA35FA24F61F2B07266684623A3D4CF073E511F3A10A8FDAFAF0078C577F4DF9D339FE7862E5FA47CF4344209E5BF76D783B1B48E152AD
311
281B15FCB934DCDA49CEC5706B1EE8B460F435324A5CAD154725E21AB8044B75A557A79F6C807B9340AA3D92503E866F4274412926C8C504E4D5EF8C0E68DD0B028781A6B4054F11CF18941F101C57CCC796773ABC8DED9CD91FE5788806C05E548895354AEAC96546D55B0E94A59F148D061F42AA398D822CDECA4CDE79E1
311
3469BDCC44FDC990F366BA5978C15F97ED80CBFD73B0CD9B8B83A4F6845BDFBFAF034019473FB9A63BD55D3A4A7284757071574029A4D016DCCBE95DD679EF3C4880BF169422F8C89B68A988D2B13793CAED4F74DE7486C72DC94DF46B8E93D8E02EFCB1FF9B3BA10C8AE7F653DF94F4AF466CDDCEF5776687F7C4C14B63E4
311
EED1719DC2EC482D7DBCC7AE518CDE3D5FF86D39000EC3673C0044E1D308BF05F74D1B5F033A7D1BE7F74BC55BBE3E4A20F920946CA0271EB17BD2B80E5660ACB8A29A79F5E4BBA49D4D945B6EEF4A7EFEAA65E5555BBB57A7E15D2F83C69F30BBB978D2B39F1F26FC097424D39BB33CA3D87ABF64E307938B685BAD44F715
311
56A30B7E712CA4FE600613C3E554B69ADE949A7CFE214DF1FFF05CB82151EC6FC31950239F94CF7AD39DC473F6EA356E5EC2C4EFA04383CEFE985A127484366FBEE3C0EC4FEA363E4F6632AE781392FD45D67B63FB8DF70E82734F431FD3443172A0E30A83D60982D55FA6A2CF86DBA8382502ACC6CDEF3B907982EED1160E
311
14863FA242F9757347E1544275CCDCF71ECD5F8621CBEA326B8BA884AD7F825781923E66971F04010D574C541D8427A438A37EEF8AF88240EED7362C953F5A81DE2D56109CDE2524EA0F5D2F87308C0C47BD97AD605878AB8589E17CA83930CB5E0DCCD75853D68B1AB136594926DE426C367428E9334AFAFF90ECE221BB5D
311
C9E5BB53D2CDEF954EAA9CD814F0E5725F1965DD458E5F8487683AD86B9D0076BE3EE91EB1CECC5331A67A3F79D8B27587C12EC2A6A70474749F27B4C0BBAFB94B34189E88DC18964BE4121B9137FD516C7755356E50D6714E31ACD222621EBBCD1CFF81D87479056A9DA0E0B8EA19D24CF937DA89F78E8650CCBDC110AAB6
311
C4E46DCBFD0446BA9E2060E81F314AC2031E88135E5476AC0160EF5C0DD2EEF1B8B5CB2D198BE9A554A9093B5F7D7E4B5407DDFCA1D9C152FD97F55BFFFDFE802954DFEC8995B983E28AC92F1971E28F531DC407A1280EB125F64A72E617EFB27DFBCEDCDA2D6F2BDADA36873EE46B9BE1782998C63DA7182BC383FB6FD15D
311
A472B175D7E8B4FC88F38D6E07FEAA3FA3CBB8F6B449ECF14D2175E5C5CCA3A42ABF24CA6C9395AF74535F4DDB38CB84F56614B0FD32D7E19CA5CF988DB4449C40E23DF2B16772594554579094450F56F253CD25EA7F77366FB1CFE79696C428BB64D5A41E986189427E5E4D7E2DAE3D5BB4972B3DC44EAABDDDD63A2264EC
311
FA5C786EB0EE1FDC5BE34FA0F08376869FD1E61EA06CAE15191135445EE8F0394161C3266A596AA035572BB0C8876180D8B9C77D307DF9DCDF7365ABDA6F3A2366436457A4DFC1F259666569A9E4A79C817BDD5610E5200FCE894A358EC72858D50EF67545DA81C6FACE3D457BAF70367E1E6BDD9A952FB4F56247F58F523B
311
97E640246051A72F79BE42FFA0B3187F63097F91C48B868586F714B0EBD5A00A8412C1236E1298F60C72BE6C96B82B404CADAA304AE9F303176B14BA53FBC2D5E86377E35542019E24D97B96A49B2C0E5006E7795954DEAF5DA58958839043C6C70BD3B1B33B6DC5C31316D8A6923F142E26F6711A2258AF977DDF1F970ECC
311
4F1F2B434B96D81BEB6E89BF3BBB3C7C8CC80505070723D6D7D7D3C8CA27CA164A26024FED94B12A86031867241DA53D929636DA600F050BC40CE48B8BA03D69224720DEE2ED2127390BDF5E6EA64527BBD4C4C63FA76BB801FEEC0E61218EC98A8A86CD8313781617877E66692839B9468CF4DB8E50A73986E558E309C0D6
311
F676F921BE02F1185454DC75B111572FF9D27D85EA14C05AD7271225B391C4275659CA4A43759D0BA44639BE4C30A84DB7F67A41399FB95CBF923B1B1672ABC807C1590557FB18D811983FA97F5E609516D62281D38B1281F68FC75528C35E4CD7DF0F7DBB5E5DD69C414EBEA2F4A5B241B996BA77AE6C772E367408C633EA
311
3E438B68563EA8BE7667F3A4C4FDEEA52ABD78A2820F443B7914A15F180018D231E64519C56A12F6CA7C8DAE18F06F6B769DBF92329EF6A5D18FBCE600F36BD8E8198DE5CDAA96181F3A756EBA5501CEE58F497EA4F418A2B82565B9BCC611713C0B708CCA1F398B78C5F7D03B3437CC18F13061F55C7BEDADD5ACB1DB0E36
311
D3CE47FF6EA1A563A57E9649EA5D14D1A50EAA457463381C073777EF1600607BAF6428A7DDC079D47A204EF1E1F1F0589FB054D45E02CE623B3823C317C601E589E22B1E88B448524B86A82828E32345EC18AE17214B42F8C41C6D428016D9BA31DDCB47572561E5A402E5BA4FCE55F78AF7268524AA04130F3A20BA5D1E9F
311
9948EA48FC8F5314FDB35E21898198060034ACE5E3E2BBCA34092518F275190AF65F45867FF0900AA4B81F25427414C372BF51DC29AA855C5428EE1EEDD6B849AD60F6E73475C2D2523F8A2772C840A478DED18A8C5C91B085F255DC4F54EA7AA8947354FD17ECF8FB3B4A0DE7B483CAF3A1165EE05BBA413E5C1FEF3DE1D6
311
B8F2F3F3251C17D9FCAB48A9AAF63AC773A0E413BBC46A9ADF84A566FC920E4D8C52C9769EE3301CADEEEDD92B312E02E2A7E35B7F1E7D203FE5A7D75578B06E99D0E46FFADB8FDA17ED8880390DA29094202D6F645F76F6F96409CDA05495A96E84B04A00D1A6C6C81D7F3DE9376E828CCF144EE50E364ACCE7237EA0BFB5
311
607ED1AC3CFE73794E5B61739D14DF1743441B1AC98F00ECEDE9E7301FA29755FBEFA68C91EF2B314CF510537EF1ABFC9A762496280B546F5EDAAF8A5B387D469FC9A878A92828C88608453ACEC6094DCA54111E7AD5B2663DFE2DD151B7F123B9F4FEF8EE36AB125FD7AD52A59B1B765B3E3F73E3F73DEA93875004D2AFFE
311
3CDE9493B87A9904DD052028949041A91DC0E1BA47BA714343FD5B25E0A6A09503AFC17C790058A836A324FE31D7893512E28230332F153181C1E018E1124EBE1BA262AA428A518237D1EA7275E48C5C561BD19ED6912EDD8367DA0F31E40EEAE9683DA9257525AEA7B632B97119E17145A90231768A4F3B9120FF32E8319B
311
015E3CBE26F1A754177D8185345817C096B0CE443A955D13AC15E1FB5DEEA0239EC32A3C92241A237B0B02FFCB4F93CF2B02570C8D192E2F2A68CEEB42F12E6F8CEEFF46C251E22B4341C56FB08CCE550E7A9D6F4D6564B9EA52A83D5BF2C6E03FA19D2775E15A8A7ACF30A13C259EE7F5EF2AC3BA354F1500E1A07FC63FB4
311
686E2F12EC69719F9ECF5FE3F35598DF2CE944008CE78F0911BA5BE5D0A34E0098FF038669C26030BA9B300303039852A8F6F496341737CA7E0D2E3AAA36DE0A70AA7D9CA0D54D9AD84B18A44C9E625475E1C97B93BEBB38DCE7D227E67A2D00F531436136355F243D1FC0D712C5765754FA22FCFFAE97919161F46D6E61AC
311
B37D83777B385889770B50765B127768443A5C4D3A4E35A3151111F146B7CA116F918A049F1C272F2CD7976C69A0068773451659A97E0F4A08FE604C3FF6CE7385DB19F4D3ABC8A0D80DA8A42096AC377DB49382B36E270B6FA7570188B4B7D1DDDDA82ACA487CCA5D38BD3BD039ADBAFA4ACFF27809239B722081E2EB9F14
311
5320553D183F28471C388BC8814E5045676767AB58A8E72D1CED2CA731379515D2E533E4CF0B39DFC625F97AC4836831A4DE330E87A8126FA17EBE583D614E71E22A8DBF2825599743E0640037303E8E1B1E8EA4E1ABFA4F62907B5E4E0E5DCFDAB417C36C6848A2B8D15F1E505434C0707E16B1CFC2A1C36A42BBF55734F8
311
F4301DDC2A5110CEE8C0747F69519265012A2174BF4E955ECD4FDE095A3ABC70536B7AD0B9D7892F81287D667C108703C9B66A221E9A0929D030008F77FF6F5D2108EF5706FC87A3069B976F7C9FC3239D13D283CDEA83597461079FEEE049B0F392889898B7D87D31F8D60ED7B56B91823A8E4EDDB36C6172ECEE42BD42B1
311
2CD67994FA0F0DFAE9389356F4CD4425A4B8AA55CBF7ECD585C6A2C2316791E43D5C06841ADBB226A87FD61515FFBB0167B74E56BD7F3E90A57A97FEDCBDF483A0D6699A8C0849CAEB4947FAA90D8E332D9DEBD9F4738C37DA0CAF9CF3DAA68BCB67C420459C7A64498D6E848E5CADE92BB6901F607AA331104A67F7CD650E
311
E169B1DAE94D2C31C2F993632259B6957E246EFE4C5481107B07118607700040E5812A2A2A38DA0076875258C753F60E0F2662C748EDD5F3F3686B8FC3BD6FE631ECCAA1E8B1C1E565AD117E54893E79F4672E32F9E46B2A183DFDCF3EECB4D4D077DBEA0DA254D256045109670050129E9B9B1A9E4A11344D61497A992778
311
095151510C4BB7EF2009B63AA4360635312E4CF668B7E0D3D85A8688E2BD83B569439892ADB63461930D428E0DE42E4AC57CE48DA5CC1449530D8BD3D6A0F08DF20C8E8F570F2CFFFCEA286E30969B4654D498A58D9DA782E19FE3F002181838925592C4A1EF0B332D88B61A92C644547BED490D3A42CFFAB70E36D961F694
311
F6307F72FF15A1C79D5B1B5CEFD353D9E2B52566DEC8F8F09CB3E8359C0F68EBBB7898243E34E12A015B2685AB303C04D3A9E00671FF3DFF0A184E4A2ABEB2B666AF5B3A209C73D8EF29DCDB069C9F391EEE9DD0F74C7BCDE16F8F02E3B8816122BBEB50665775B600549D8BB33A54A6BF940C028118BC6878C79958D6784F
311
9DEAA6E26748386FFAF8D0D0101E2847B6563F5D8DC1D78F787BE00E2C941AE12148D4A81599FE8F68D4DA5CDED75530ADE138240300EE13B0FC13A1687FED6774662C05A2B7DFB186732F0D7A93545D8B0A6390AE5054D9CB582DA846D7A061B3358B45E2B52DDE63E114397EDB7E09233A579155D795BE76102CF277F4DF
311
8B188C4F2879BEAE3C08347124BF9ED23B128259FE107D31E34A652F090B30B39E0D9AF917B76A2806135621A8A60681F16AF216514BBD02711585B5B1AE823F4B2D0369EA5B6BCB863072727FFC871CA6C9AB79A814D989057E9470A3D238BC87CBB4A0EA49AFE2B86F22E499793CAA9047080450166BDC357524561E258C
311
77CB697F1ABB32562CF87C3B7AA12F911EF19FB3E5C02222E887D08202A60A17151F5E053A86B437771088B4FEE14D652C43E8D939995D34545E12E2FF93D4E366EAD25F10CB7DED141563C3D0C447AF06078A91135FD4B9611583CB4BF3BD167F2399CEAB0E0100F8FFC305F00F1711717173138B4B48C83022295DE657EF
311
EDD97F238ECA80F528AFB4F8D67AD4E2594B9A3AA86D7487EFC313BA95745C186F0CDD84CC12DC9CB0424B42203D351FD9C0A3AF10CC7F388E0329279087386421F194F4A29464C1DEF7EF8BE515E4A199DCD5B909342598D8FE6A231F71336248D5CEC5454455C7BE383B3BC7B260FED27F703FDC39A170F3827239102F59
311
D4DEE7FEF82EAA1A5E4BA94DCC4CC44E7E2EDE20F24244E4454369D2E87C3F823F193FD4FD27E1C23984B01898D15ABC20711A8A558054951A6AE280096BA36CBA439603B7B0B4C45F248C14B2383B4B5CD8ECECE4FF859AD4A6CA2326D020EF090F4041D28DB66E5256B56232CC52829DE8060BAE6BBF37D4B7469B822454
311
FE93210A3E8D15E69FFCF01123222611C51C4FD0A041A0CFA2471CF6BE38D2B20FA4C3525B5B8B586759475CF80ADFE67A284AC24651E52B8E683D24C2622642F27E7C3C22783BCF63648BC398BD6CD0D9C97E7E7E3EACB6126DB7A6C1FD9F1031302EE67ED96F22B77C7CA0239BB324207559B105E4693EB26EC46182A92C
311
9C0DBD24F29B31C5C5AC1F84300E0E17CEEAC15F5736FA4A98971E2F1423BFCD68D4BBD5F86E74B40A369F39507C88FCDB35D2DD8DEBEA4AF999E23CF2816D204200DF6E611781B9884C1AC8888B4DE397320472959434323A5A36B22A8E1F721A270DF3BD65E4A31C11FF048AFB0D8B7B6881423793963A23CFCE935FC189
311
ED36FAE35C46DA3574C979E4394BE52084F3081837BE033396D2EBD80F1F691B273F660D2B32FA27A33B1DE4ADA5F0FA4651511102DFA410DDA86E065272CA314D5249DF91B06BB92807B28EFD54F08F7B525252782CD276DD02E6B0319B13DF87B1F6361AD6B28FC0D711CF445429B9E5A433CD493051C49A9E03DDB1B147
311
D880253514A5DED88009018620EE229101C041950E2D8AA8E1F5F5438E0C0C0C60EEDEE9E3E0C051948C69F84BB7B2A48A1F3C8EB9E6864687F4F4F6F6E2FA87608ADAF9C5E117B7C1A737E710769DA1D15ECE6A84502AA855398712D5FB51BE92E4EF824969CE18278798AC303C2C7980DD2500ADF8FB1E6D6C2FAAFF9987
311
178923334A244758BAA01A9A1B70FA5097D01E1CC2A58DAD0EC94CE6430AA9B0C10D75E3C6BAC670EFBADEE1607739CE0FC18A2587E3EC3058562014C64219C69BC269082D5C2F4A659278D585755912176D78A1B641719C2A394CED495A1AC5D583FD2F5EDD93308EA7EAE8A6DD396598BDBD3D4CFED62D18A5BDFDE0DD5C
311
80D1A89BA62697B131AE7CE9A6594138582F1B37D68F1749AC7CB67A70695D48A4A056AC1FBD4E82358CEAE38F54B95A9016F9000F9879C0D9D131768635CA798895F27D6F1614F11F2838A83611AA51C9A3DDB539D42979C29F10465655C17BEC3E2760B80DCBF609198C7B171A531905F3EC218D696025975E986C6B4C66
311
6666787271F202805577DD5A3EF0CAFAF91B62DC4B2DB4217A7606282F31D8DDBC290593BAA93EA6353AFA9939B877978481E15CFC9F2755CDC00C538F63A4BA3E80AE009B73CA0185687D339A507D165B74290D6EE46D5C58148F020C3668ABE9EF2F7549170DC80DB41FFC1D678FF19AEB10C7133832B104B80F691B3138
311
F97A92D26E551F1F110400D45AC71A9B9AC41A1A1B1DAEED0B0810638EFFB511D46B121C6FEA0F38CD00E03CFFEB9713FE1F9C263E4DDEC160D0497FA9A132BA608584057FB15380825DE6C7FC3C667EE947D488A09898D8E939C4953BF4EC9836344D2CC6B2971B2A21A572B06096F4982D2CC7232D46E8EA69DC83722E26
311
7754D777F97F96D5DA74E1E75178084D0E70F12AD33E5F71EF2AFA599B2BEBF60A5BE475F444F240CBFE8143C334E7ED9150FEEFEF7EB020C4DBED388DD1D6A167A76F3CBF119B578AE8CFA7736ACAFA4440A1C47185638A0D2F3EB5BDDEFDA958FB13CE4AA4923D5BF840392D45544329525749734866684BF7F8D9D54D89
311
2E19BCA9F829A0F8BFCBEEA6CFDFC61D74EA1A645ED7A1FF241739F15694BD835B66FEC5677E40FE69BD3F91AE402F036537218A401CB0828604AD189E575015C6F3F6BBC8AC79CF6C70653847254B31551EFCBEB5978B9DB85D58D0FA41A9DFE9C624834AA04949D24B5AE6D299E072D152D12097920F14AA92C31C3B97E2
311
8B6C2E6E9C23D63043ECBBC0A60FDF5BD0C33C127EA8A3308B8B6AFFEB28B4455BF6E7AF4FC6222728357EB8E46E85053E6A8843AB23295BF838ABDA94658FEF3F832F147046B4ACD6F7D48E8FCC9618582961C898D1C7A253C91BFECBDA6BA18A1FCF70755DCCEE2222F41B76D23CA98D0CB3D95F0CF66D57FFF65E2A90F5
311
DF40FC3187621E981BD0BC1D992787212688976B94A8F0C6EF646624B570B78E068826F87CE27041A95C9A4871FF65CC17FCB1639629AD6A9517000D63AC231F3D741CB8430777E7ECF80CE7A3F73C0F162F7E56AA71F4DA80A33CD6ACEE78E2C11FAC03DAFCE929B106F8F6B3ED2DC71FF994BD9CEF4E9A94896EF1B6E2B7
311
B4978168BCF0847A3D2A4F1B0500B926E634B174548E9FBAD27153FB5FC36799B1E6C7C38A94E1F9E996796D7B485E635D5287A2AE76FBD11A341DB3F8F810385BB7296391973DC6C37C452A9305AEBBE0CDB6C566DB59FE60C8E94B1FD090354BF51439FFD1B48D725228FFA88C84F686F547107A7A235665A4593B7C34D7
311
48C1AC8D56DD5DA861EEFBADDECBBD65117E65851F90351AEB65F0EFCFF4BCFEF24CB7A5879699FAC437A7AF9099186CF006BB923A59E37D7A36A29FD8D2CBB914A5E9D0A8FD212FBF796AE9A67958FF1D5D8B85F78F96219D4714EB919929241B6C018AAE0C02069F8D919961EC5DDFBFB7573E3AC8E08BFB7C8534BE6DE0
311
45B3CD63DBD71F7638BA2309CAE398EA3A7D8F98BBBC7AEB367EFA5CFA27A9F8F2F52FE878058E6209C026453F8E7E8A237DFC389E9590F6059B397CFD65183BBF936E86896612A5B5FEE49DAC8455D026218AFEBEC12B3523A45B57B82C9C97E02ACFA1184DB18E48CF615DBF39C3CC6F0B4AE6BBEEA2E39D944E290302FA
311
3DE33FA7E40296E2EF7BF1CD855BBECFAD0FD622BEE9746FC4FDFDE545AE6E3BC234CADF83A0FB76DFB145BF3828AE3436368AC24989454F8FF70A177672C711CAA1A76107218CF948CA01F873520E7A2B118EBB161ABAD432932029628B6761590C98AB590C8C8C79798CE9F715BA696E839E9131A4BB68BE923F1747FBFF
311
165331FFDD4D05997ACD168F12CA75348DAC04C7F509FE83898A8B421181AF492861CE81E4A2DD0A30850CFA95E05F097FF70F9E777310D584A75BA7018922E271DAB1D785671157685B7D383D3E074DDB4F1E44EF04B07BAAC75A062077C54B9752C738C9D804D402E02851F3F89605AF189738C18C021D2139EAF7251382
311
4E10DDD3047BACC8521ED7E98B257D1166903B1B08FA6F918FD7E162913FEC7D0EF4787E29C35FBA8C6E2C9C20E9AB30AE42CA2A01A090E7D010C1B5BF9CEE2A304BF3A987FB40D836979B79E18D70F257DA61E808472DD85B82761825779D6B90CAEB0F23360C6F80A7D7D77545E95B3DFF0CF96A827F9B5BCECD2C969871
311
8417EF80FEEDEE938AFF55859D0D540B7FE09435583A6F04874A0C7E8CF234DF4879722000167F5872CEC6BF3EF7E5A8CC8121E6A359227C8A29C95212F9F735BC72A887D56B8F309FC525BFB4FD767AAEC4AEFF249CFBBD2DE1AB9969A6155C7D8DABC307E47324C1F916C7BCFF40ABA5644E9FFB9238D19ADADA49D9610F
311
01ABBA57E4DFCBDCCBB2B93C8953206C91DE01B0E2651A6D6C31721915B31F7B7CBCE55466F6D70402788FA91D73BE4ADCBA99A35F17D6B83383704917D6833F0FA3CD45C926ADB8BC17999A4A0AFBCE2541F7B8CF4C2F5FBA611B3E626D64407CB32C122DFF4EF8674D6EDBB86C8F7C6A16D50FA685E2CCA34F8F7D1D8265
311
BB0042E9D7F1F666F7BE5FAA5184DF58E12122A42EF02F461B3F369AC746F96528AD208512AB56844CF75B97F352DF7995024FB02855385854F3798670D01CAC771AC3E1889EC25F61A20C1F8CAB46898817F9C47E2CDA1F286BF2F358298709FE567C91133E2638C8B53975E753EA8BFD3578B5F7186B7BF084EBA3F77BAC
311
3132A5779902EC22AF2D2E79F42D324E083386DAEE9810D1B44A5DAA54513C7A71E52A4AB9257D975B621308FE4D2141CC3DCFE946C154A3C1DFCCA7629EC69ACFA831634ADDA93C0388D2A9A2DDAFCF957C6995BCE7FBB6DC4EBAE79E63EB08E9A25F52F67076F7093CA545CA3053B5BF576DEAD4E0017143C5F759F32B2D
311
6F145B52B67B48909B7C7FCA6586EE385A2189C16932CB6DDFD9152AE317C430492A578ED27B72D85D40C7C93C097939E1B50F4D67F05334FE9DC362C30B7FF561B95259138ECFD9274C8D695C31B14D4EAA9F3D7FA8DDF652F8C5DEFA23284C799B7D94416DEE81E05A866302DC70192A5368EA65E1CED8BF107A1E2D3119
311
A71E85DC1A7B0C1E93274CE04DD0F2ABC8AC7C987FDB002B6F81757B43502EF7A0D92E416494FAEEA4C9C090CD9557AA4D532F4996A272B94355C5A0E4974EEA9627476F30809B94D8D8D860062E02204643BEC7D0438AF800FC7E2B26955D595421E83C69E1A07E0E3122285835F014AD538188CF9737CE76D464A353FA55
311
A001AB2526B84E985083693BC76FE211CA1D000679C889E3C009832C87E1AC2EDD05C302557422DF0800E316FCAC86978A371F025A6C7DAA9F333E7BD160403A1A06EA75AA9888FF01504B030414000608080075454C4828BB58AF800100009E0500003D00000037313131393542302D414431342D343431442D383436312D
311
3237394436324136423938412F536368656D61732F436F6D6D6F6E536368656D612E786D6CBD544D4FC23018BEFB2B96DE15493C78601010A34B880709DEDFB52FD0D8B54BD70DF6EFED3AC0B12E6442E2716BFB3CEFF3D18E26FB440405EA8C2B1992E1C323095052C5B8DC842437EBFB673219DF8DA659866649B798C078
311
B48AE6410122242F2A4994AC7F93815DF85C049C8564CA0A901499DD886B2EB9B1E02448F358701A9235880C49A0119892A20C89D1B9FD768815CAD268CB5E0355B40B1E47F3E37A2020464BED06AA57CE8FCC20C3C3446D46761A2632A8C1283D07031EFF2AE7CCB1BFEEE916E406DFAC8E36FFD99A9D60A6944090EEDC3B
311
670C7DC13DE86B6B2C5C240D6E503BB85ACD579D513F1B9F9A69DC9CC22AFA80C426D40AF0B21EA168559156B6276F0F726A6BFF04DCD513A87A62CAD41FB24FCB2858B3952E3D852084DA25B9303C15687973CC8E8AAE11DF2836C38C6A9E765E8C1BA1BFB1DC29CDFE518C8B5A7655A4ED7E77291ABEB80DBD82EC866ADE
311
1B8D05AF9E35CF09D7A061F38A986D9EC412B8F0F65E5D81534D9B231D1E5A8FE577A241F3A5FD01504B030414000608080075454C482CCEBD668A040000E01200003E00000037313131393542302D414431342D343431442D383436312D3237394436324136423938412F536368656D61732F47656E65726963536368656D
311
612E786D6CD5586D6FDB380CFE7EBF42F0F7A649B70E1B90744856B4970F450FCD7A5F05459613EDE4174872DADCAF3F522F8ED3B88D2F1D06AC4050DBA2493EE4438AF2F8EB73AEC8466823CB62928C06C384888297A92C5693A4B6D9D9E7E4EBD51FE3A931C22EF85AE4EC6AFC38BF261BA626C9AD288496DC3F4FCEAFC6
311
3366845F7A10452AF41DB320C0D44EC26EAB20918735565582695670811A6A49643A49A6E9069FA4604A64B29016DC4B48552F95E4932463CA888468C1D2B250DB4962750DF7CE273069CE8363F1FF4EDB00E0A21999574AE4A2B00C353B93F3BD4777B8A61ED8F604ABFEDD79CE56A2B7BDFBDBC50996E0ADDE16FED26223
311
C5D30956C29BDF4A55EA686E5E58B112DA45CE67F76F4FA27EFA3FB672FD7372FC388FAECDCA5209E693CAD167BADCD272F943701B3812F8A3D852008B1D2E32DB927B2F833C6EA95879925356D254582695095A3CE982924720BE5774A3CB9CDCDB350427D2DF20DA1B5532EBE2D5D6288D75D4F7E4FD9890A0EF8E3D93EB
311
B8F8BA4758158EF6FB90A6F9520281C93DE7AAC6D24607DA296BB96018123F821A7D6A5C5884050C475DA4865442732C8B95684A50165CBB3A32F25F783A4A480ED59AD7F924B968AEA50131F46303223E6A397B0E52976030DC1DCA81D7E7C1EDEEA42C19FF27635C505E2BD5198A599020DF50A2330FCB3AAF28CB012410
311
8429553EF1B228802E2265D8F7CC2401042B155BCC7070F1E5C55F13B4A9577362CCCE46C32174E010C3C378C44841A4BDA00FE3A12006CE11EE6AEC59894D3526DDE1CD59D503ECC324017F8061B7F162162FA62EDD81AE3308617770796DCBDAD2B2625C5AE8A63DE20B2C8AA5E95E76E5730823955956E33E705425A218
311
7C185D36489A1B44D3DCEC2172F6BA2105C3546287A7194B2331768EBBE64F6E70A9930ABE0ADEA89E9E2C38523B810287AD67A54A039C1606EAFE68F8304610BB9093DBDDABC0B2AE4E290DCDA15376D7E39F72B556F0B32EAB5D3D498B4C41ABADEC3A1434C422D87E8025A84BDCB2B1417ED750FAE4DA8976863974C577
311
C7F902D3F156AD354DEA3540DE6BEAE2BEA52F7A2EB4CA43802ECE5BF2CE2EDC9347179FFB023CE412E60BE16DA0BE29B374988A553F561DC04615DD35F7D2C8979F60E5955CE93DF29DED8AFA1EE6642D53418086C03C47C377910F75F7E8F5EF665F70B60FFB22AEDF897D119E8423C773E819A3C1E55E550599EE6EDCA3
311
4D0C86FD72057DF2CD46F16A470682471C164E4346D5306BF12D7D12D82CFF673D41636C347443FEB51B50D72EA171A8E4A58623A4A16E0FA2B8B10A0D23268D87C33896EE8FB73305A74BF224EDBADFA0BD674AB354D63DB7BD5D83426761C077DE767728235446A552754EB93B755891C3C4CC6CADE37CF0E912A7BB38DB
311
A010F9DE1282EDF470CA69A9CDA482E334C4A6EA4107987980B17E72F31730EBF88BBD39E7C629F56797A3C0009C2C5AE7951D9A05A02773440F02EEB4DE396A3B6A570C72CCFBCD823B0B8ED3F1D5CEDDFED772FA70236C83FB7D86C385D570B87107535572A60A96035F8F7C6A7192F13007246BBE0521855E6AC46F3E27
311
689CEE7D186A6FD679D98CDCAD13333E04EBE7ED6F55FF01504B030414000608080075454C486180134D5F0100006B0300004500000037313131393542302D414431342D343431442D383436312D3237394436324136423938412F536368656D61732F52656E6465724D6174657269616C536368656D612E786D6CA5934D6F
311
C2300C86EFFB1551EEE343DBA41D1A103009551ADAD40EAE28A4A68D9426284961FCFBE5A340113B2071746D3F765EBF4DC6BFB5407BD0862B49F0B037C0082453059725C18DDD3EBFE3F1E829991803366715D474942CD30FB4A782E00C64017A412D684E454CE3FE28995203B162A6EA5AC94B66997D225E109CD63B0135
311
484BAD1B3C07E9080CA35DB3119C11BCA5C200461A68A1A438126C75E3E230D40FF81FB3F03C91D1E3A3A0AF79FE28E25BC39EC3E17E4C2A2D94A0833A51AF55BCCA7D88572FCBAC529C4140B020FC3AAFA886621DCED7EAD7664CC86024E806DC297DA1BB393E4156543457A4537DB8817349A70F8ACBF09B3EEE2CB2F33E
311
91B65D60786E4E3B39B77E3FEEEF5650424525DA657FB8B46BE6BF064646F0A0F7327C0BC1BC1B4CBBC1C419FA3CCB23500007872A2580CAAE5461865565294E4EDB4617B62FF579DF9A5B2F54E834076A597573A020912FED777F9B3F504B030414000608080075454C48A610DF3A51000000570000004700000037313131
311
393542302D414431342D343431442D383436312D3237394436324136423938412F4173736574446174612F41737365745461626C654F66436F6E74656E74732E62696E53616060307175B5303436B0D035703635D635B17434D1B5B470B4D07571763330763232757132B61402AACB4D2C492DCA4CCC492C28484D2C4ACC4B
311
4E050A82012F90744FCD03CA26072767A4E6260200504B030414000608080075454C48F865834058000000680000004500000037313131393542302D414431342D343431442D383436312D3237394436324136423938412F4173736574446174612F53747265616D56657273696F6E5461626C652E696E66558CBD0A80300C
311
06F73E4B117FB66E451741D041DC5BF98480A492E4FDD18EAEC7DD4555D89EF28DF51A0B1BD8340C4DE7DD848B988C0ACF0649566493F2408C508DDEBB99D5129FF8F1AF8CF5B9503E20FAE5A16B5AF702504B030414000608080075454C481508316337010000A20400003600000037313131393542302D414431342D3434
311
31442D383436312D3237394436324136423938412F4173736574446174612F636E782E786D6CCD94314FC3301085FF4A64893176122A54558E2B044B2790A818D8AECEA55875ECC8BE20F8F7D86D0650115387AEA7EFEE9E9FFC4EAE3F075B7C6088C6BB96D5BC62053AED3BE3F62D9BA82F97AC582B19BCA71F182B1C0CD8
311
B25C664AEE839FC6B9D4610F93CD556BDC612EDEC788B4859DC5A7FEC13B42479115DA428C2D8BFA1D07E03091EF301E780704BCE601A39F82C63489CC80F3241D10083BA69AAABE2BABA6AC9B6DB55C2D6E578BE64D8A4C2AB9F3DECEBC49CB821F6F9A4A9FF6325549910125A760662ABF86A9BF54F29D71522452C94821
311
B93277D0D7983A601CADD140C93CE1352195094218A438C14A8AECC22F2F1EB137CEE4964D9206E4C3731288810C5EA127FFA9BDBC371B17099CC66B76E45CE3E57D7839FEA2D7532C8FB9B9BEB49C6BE4C6F517C88A389E93149D7C5DD437504B030414000608080075454C4834C398DFE700000060010000670000003731
311
3131393542302D414431342D343431442D383436312D3237394436324136423938412F5265736F75726365732F34454538313330382D304335332D343941342D393841382D4443463033423235444233392F7468756D626E61696C2F302F636E782E786D6C4D90C16EC4200C447F2542EA3181A4AB6AB572D89FE8A9978A12
311
6F8A966004A66AFFBED072D8D358E327CB3370FD3EFCF085293B0AAB982725060C963617F65514BE8D67315C3524227EC0C410CC81AB68B6D0B0272AB15B1BDE4CF1CDF52EDCBBB963C0E4EC7B0CBB18AC3739AF22DB4F3CCC640AD386F93E6D86CD344F09339564B11E6077603F60131AC64DE845CD2FA35AC6797955E7CB
311
E9F9725ADE403652C30791EFBC0B8C89E2D3A22CD531D47F14C8066828C975AA8510FAE1399075A92173AAF93BC43FB1422646EFACE15A9324CBC86385D01C20FF610DB2E5ADF25746D5D68DFE05504B030414000608080075454C48A233C2345D000000800000006500000037313131393542302D414431342D343431442D
311
383436312D3237394436324136423938412F5265736F75726365732F34454538313330382D304335332D343941342D393841382D4443463033423235444233392F7468756D626E61696C2F636E782E786D6C4D8B490E80201004BF42E6EE76F3C0F216234B883063108CCF170C074F95AE5473F5C4C06E932E4F2860196760
311
0677D21E9D8092EDB002539227A2FCCB80E1168D80A6417297A89C5D6963B7129A0D1E8F2EE73AA7B62BBEB8B27DE50B504B030414000608080075454C48BE89762363000000880000005B00000037313131393542302D414431342D343431442D383436312D3237394436324136423938412F5265736F75726365732F3445
311
4538313330382D304335332D343941342D393841382D4443463033423235444233392F636E782E786D6C4DCC3B0E80201004D0AB90EDFD75167CCE820A4A845D83603CBE602CAC26799919AEEEE0D965E2E908050C6D0FCCE04C8BC355404EB6198129C92351FAD580A10E464065907C8D948F8F166375F655BDC3FDC3B4E5
311
30A176BE7057BDC43B2A593FE403504B030414000608080075454C487CE25CD57E000000A30000003600000037313131393542302D414431342D343431442D383436312D3237394436324136423938412F5265736F75726365732F636E782E786D6C4D8C4D0AC3201805AF22DFDED644030A6AC85FEF111A13A4468B8DA5C7
311
AF962CBA7A30BC19D97E7687DE26BE6CF00AAA0B0164FC3D2CD66F0AD2B1620EA8D5328670FCDD00F979370A0A062DB718D2F3448B59E7E40A75D63F4EC8A6895794704C868662263A8605EF381E871BA17DDD8C3D15D9B81625CFAF97B7E4F517504B030414000608080075454C481DFE7F850B0100005503000034000000
311
37313131393542302D414431342D343431442D383436312D3237394436324136423938412F536368656D61732F636E782E786D6CCD93BD4E042114855F65426239C08C1BB3D9306C616165A35676C8DC5DC90277C28FD1B717468ADDC44E8BEDE0E4CBCD3907AED87F3ADB7D408806FD4406CA49075EE36CFC7122391DFA2D
311
E9F65204C4748691CE2B0713A93291E218302F4D9AE1A0B2ADAA35FED4C47B740EFDB37E07A748A7AD8A712271BD529513CE104F745649D1810688988386322119076D820EA012CC448E7CB8EBF9D80FE30BDFEE36B7BBCDF82A5825A57843B48D373E41C0E566E41ACBD117435CB00A48918369544D41E4B93B5AFA10AC10
311
52C4144A0B8D4C5F4B21D5B258A3552A65B115FC61A46035EC45E407F0108CBED6CC17F6FE2DF413F819C26379A96094BDD6ECBFB9FC5B056CDD80F20DEA42C86F504B030414000608080075454C48E3603EBE7A000000C20000002C00000037313131393542302D414431342D343431442D383436312D3237394436324136
311
423938412F636E782E786D6C6DCD410EC2201085E1AB90D9DBEACE05D09878023D01A1D34A8419C380F1F82DA68B9AB8FDFEC93C3D7C52546FCC12980C9CBA232824CF63A0D9402DD3E10C6AB03A3397DD192872090D3406ABE7CCF5B5D18893ABB1690CF4DCF02282E5EA8A5BB96FFE536F285CB347F95BEFFE81C9ED5AFF
311
9D5B1FB575BB00504B030414000608080075454C483EEC434C7D000000A300000007000000636E782E786D6C4D8CD10A832018465F45FE7BB7FE70A6A086E18BC4B290998E96638FBF1C5DECEA83C3778EEA3F6B246FBFBD424E1AF0D200F1E99EA790160D659FA900D21BB5E5BCFFDD80A471F51A2A06A3962D97E789263F
311
8F25561A437A9CB04344791B1A6A1D32CA183A2A1847DA76D2F1D6F2410A7B18D7AA1CF3EB1D5BF3E60B504B030414000608080075454C48CA1DF9C9A900000073010000130000005B436F6E74656E745F54797065735D2E786D6CA590410EC2300C04BF12E5DEBA70400835E500FC800F84E0B411AD13252E2ABF27A55740
311
421CEDDDD9B55CEFA7A117778CC979527255565220197F75D42A39B22DB652EC9BFAFC089844F65252B2630E3B80643A1C742A7D40CA8AF571D09CC7D842D0E6A65B8475556DC07862242E78CE904D7D44ABC79EC569CAEBA537E3521C16DF5CA5A40EA17746733E0B6615DE7217475F386F18B9481C510F1F021CD9FF027E
311
A0E1F5C4E609504B030414000608080075454C483DEE336E64000000790000001B0000006175746F6465736B2D64657369676E2D7061636B6167652E786D6C35CBC10E83200C00D05F21DCA56CA76D41FC96062B120735B69A7DBE268BB7777961F8D5AF396893C2ADB70FE7ADA196782C2DF776D7A97B5933C430F15651E5
311
469C55D70F80A4992A3ADC954792C525AE70A1E4D6AD9816CC044FEFDF01FE3FDE907802504B030414000608080075454C48BC7B431EF9000000960100003700000037313131393542302D414431342D343431442D383436312D3237394436324136423938412F4173736574446174612F636F72652E786D6C8550CB6E8330
311
10FC15B477836D481B22E3081AF8829E7AB3C02156828DFCA8FAF9B50395DA534FBB9A9D99DD1D76FE5A1ED9A7B44E19DD00C93164528F66527A6E20F82B3A4276E6CC1AE37FD120D362910D2418389BAD09EB0E8D467BA913AACD24775038273D64E323360DB8F12617918BE023C3DDF3558C7731CB9CE41B8FB310D4B44B
311
D514DDD455490BFC48DB4B3FF4033A90F60D55434D51D77704D5870ED7352E09C6AFAC4862CEBC5A7EB68F560A2F27E0149317842922F41D1F4F5579AAE8072B129333E76DFC795F9ABE03DEA6AB2FC20B566CD33FAE619DFE770D4AFB92EEAE9BC20127F1C8E780B322A514CB33C25853A2FC1B504B030414000608080075
311
454C4802FC0820F40000008E0100006800000037313131393542302D414431342D343431442D383436312D3237394436324136423938412F5265736F75726365732F34454538313330382D304335332D343941342D393841382D4443463033423235444233392F7468756D626E61696C2F302F636F72652E786D6C8550CB6E
311
833010FC15B477836D481B22E328B4F0053DF56619875A0936F2A3EAE7D70E546A4F3DED6A76667677D8F96BB9179FCA796D4D07A4C4502823EDA4CDDC410C577484E2CC99B336FCA24161C4A23AC83070363B1BD71D92D60465326AECA4765078AF0214F29E9A0EBCFC508B28450C89E16FE52AE44DCCAA24E5C6E32C463D
311
ED523D25377DD5CA013FD2CBEB300E233A90CB0B6AC696A27EE8096A0F3D6E5B5C138C9F5995C59C05BDFC6C974E89A026E0149327842922F40D1F4F4D7D6AE83BAB3293331F5CFA795F9ABF038E59B5A17FDCE23AFDEF16B50935DDDD3685074ED2718F0167554E27954774A9E624F937504B030414000608080075454C48
311
DCB5721CFA000000960100006600000037313131393542302D414431342D343431442D383436312D3237394436324136423938412F5265736F75726365732F34454538313330382D304335332D343941342D393841382D4443463033423235444233392F7468756D626E61696C2F636F72652E786D6C8550416E833010FC0A
311
DABBC136A40D9171145A78414FBDB9D82156C046D8AEFAFCDA814AEDA9A75DCDCECCEE0E3B7FCD53F6A956A7AD6980E4183265062BB5191B08FE8A8E909D395BADF5BF68901931AB06120C9C8DAB0DCB0E0DD67865126AAC543B289C531EB2618A4D036EB8A959E422F8C870F77C11C35D8C2A27F9C6E32C042D77A996D14D
311
5FB55A811FE9E5B5EBBB1E1DC8E505557D4D51DBB504D58716D7352E09C6CFAC4862CEBC9E7FB60FAB125E49E0149327842922F40D1F4F5579AAE83B2B129333E7D7F8F3BE347D07DCDFC2FC61849E58B14DFFB88645FEEF1AB4F125DD5D3785034EE2918F0167454A29964784B1A644F937504B030414000608080075454C
311
48960F02FE0E010000B10100005C00000037313131393542302D414431342D343431442D383436312D3237394436324136423938412F5265736F75726365732F34454538313330382D304335332D343941342D393841382D4443463033423235444233392F636F72652E786D6C85904D6EC3201484AF62B1C7E6C76E21C244
311
76629FA0ABEE904D5C94182203558F5F485CA95D75F5D030C3C71B71FC5A6FC5A7DEBC71B605B844A0D07672B3B14B0B62B840068AA3149B73E1970D1456ADBA055906522C9B8BF75D9A9C0DDA66D5BA59EFA2F25E07504CB77468819F3EF4AA4A154372F86B7957D3552DBAC4E5D327458C66DEA3664EAF998BD11B908C74
311
E7611C46D8E0EE04EB9113D80F3D86BCE911E78862845E4595C35204B3FED0A74DABA0672009C22F101188C91B62879A1E6AF22EAAEC94C2872DEDBC43F37640D6C3C030450CA2534361CDBB1A72D631783E8D88F6A439F7948BEA19FC038CF7F97F60343650B2039F090F244EFF7F5C4851E502D378B49B662E5B7E03504B
311
030414000608080075454C4828272443FB000000960100003700000037313131393542302D414431342D343431442D383436312D3237394436324136423938412F5265736F75726365732F636F72652E786D6C8550CB6EC23010FC9568EF4E6C135A821C2368C307543DF566390B58103BF2A3EAE7D786546A4F3DED6A7666
311
7677C4EE6BBA559FE88371B6075653A8D06A371A7BEE21C513D940B593C23B177FD1A0B26AC21E0A0C529CBD4BF302696723DA825A37E202AA103042A56FB9E921E80B4EAA56296646B8D6B3D25775C69AD50F9E14299971919A31BB9993410F72C3F7AFC371389235DBBF90F6D87172180E8C74EB03ED3ABA62943E8BA688
311
A58866FAD9AE3DAA8823484ED913A19C30FE4E37DB76B56DF987680A538A107DFE79595ABE03F986C125AF3188E631FDE39AE6F17FD7646C5CF1C5F5A10820593EF23E90A22929E5728F30D792A8FC06504B030414000608080075454C4869432B64F8000000940100003500000037313131393542302D414431342D343431
311
442D383436312D3237394436324136423938412F536368656D61732F636F72652E786D6C8550416E833010FC0ADABBC136A40D9171145AF8407BEACDC20EB1126C84EDAACFAF0D546A4F3DED6A76667677D8F96B7A649F6A71DA9A06488E215366B0529BB181E0AFE808D999B3C55AFF8B069911936A20C1C0D9B8D830EFD0
311
608D5726A1C64AB583C239E5211B1EB169C00D3735895C041F19EE9ECF62B88B51E524DF789C85A0E52ED532BAE9AB560BF023BDBC767DD7A303B9BCA0AAAF296ABB96A0FAD0E2BAC625C1F8991549CC99D7D3CFF66151C22B099C62F284304584BEE3E3A92A4F15FD60456272E6FC127FDE97A6EF80BFAD773A566CB33F9E
311
6196FF7B066D7C4977CF4DE1809378E23AE0AC4819C5B206186BCA937F03504B030414000608080075454C48BBEDD1F4FF000000D80100002D00000037313131393542302D414431342D343431442D383436312D3237394436324136423938412F636F72652E786D6C9591C16E842010865F85CC1D15D6BABA41366E7C849E
311
7AA330EB925DC108367DFC62B5C9F6D69E203FFF37C33F23CE9FE3837CE01CAC772DB0AC00824E7B63DDD0C212AFB406729662F63E3ED9803835620BAB0C520CB35FA65DD2DE4574ABEABCC15D54216004A21FE9D242D0371C55A696981CE19E4D4ADFD58019CB369F14D18E3FA89E5145342079C12A5A70CAF86B519FCAC3
311
A9E46F225F9D522CD6C503DF9BE1F88E86F829A648096322DF9E936DB1663759933E69AF16679047C658F3722968D7B3929625EB695D568CF263D357BCAB2E4DDDA522099622C4398D662FB20EE1AFF806FE8AB64CE69FD13622807C0A95AF739622FF5E423AD79DC82F504B030414000608080075454C484F4B7367080100
311
00B201000008000000636F72652E786D6C8D50C172832014FC15E6DD5140D3C60C9289AD7E414FBD5121868982239869FFBE90D899F6D6D36376F7BD5D961F3FA711DDF4E28DB335D08C00D2B677CAD8A186359CF11ED051F0C5B9F04B06C8CA49D79060107C58DC3A6F50EF6CD036A1D629BD81D27B1D00F5637CD4E0FB8B
311
9E6426D71015FE9ACDB2BFCA4167347BE8040F66FA59ED172D83562018A14F98304CD91BD91FCAE250B2779E27A5E0EB6AD4666554743767A317107B767A6DBBB6C33B7A7AC1655731DCB40DC5D5AE2155450A4AC833CFD3B2E03E2CF1CFDB919833202F6FC997E70F4AF00FE7C64D104329E4ECF80582F03C117F42AFB3FA
311
47686343C1B6838F0D0F82C64077221AA706E3B8D71B676A5B7C03504B0102140014000608080075454C4869BC376113010000A80100004F000000000000000000000000000000000037313131393542302D414431342D343431442D383436312D3237394436324136423938412F4173736574446174612F446566696E6974
311
696F6E4974657261746F7250726F706572746965732E62696E504B0102140014000608080075454C48486C5A92090100003002000045000000000000000000000000008001000037313131393542302D414431342D343431442D383436312D3237394436324136423938412F4173736574446174612F496E7374616E636550
311
726F706572746965732E62696E504B0102140014000608080075454C4888E57597CD3F0000904100006B00000000000000000000000000EC02000037313131393542302D414431342D343431442D383436312D3237394436324136423938412F5265736F75726365732F34454538313330382D304335332D343941342D3938
311
41382D4443463033423235444233392F7468756D626E61696C2F302F67656E657269635F706E67504B0102140014000608080075454C4828BB58AF800100009E0500003D000000000000000000000000004243000037313131393542302D414431342D343431442D383436312D3237394436324136423938412F536368656D
311
61732F436F6D6D6F6E536368656D612E786D6C504B0102140014000608080075454C482CCEBD668A040000E01200003E000000000000000000000000001D45000037313131393542302D414431342D343431442D383436312D3237394436324136423938412F536368656D61732F47656E65726963536368656D612E786D6C
311
504B0102140014000608080075454C486180134D5F0100006B0300004500000000000000000000000000034A000037313131393542302D414431342D343431442D383436312D3237394436324136423938412F536368656D61732F52656E6465724D6174657269616C536368656D612E786D6C504B01021400140006080800
311
75454C48A610DF3A51000000570000004700000000000000000000000000C54B000037313131393542302D414431342D343431442D383436312D3237394436324136423938412F4173736574446174612F41737365745461626C654F66436F6E74656E74732E62696E504B0102140014000608080075454C48F86583405800
311
00006800000045000000000000000000000000007B4C000037313131393542302D414431342D343431442D383436312D3237394436324136423938412F4173736574446174612F53747265616D56657273696F6E5461626C652E696E66504B0102140014000608080075454C481508316337010000A2040000360000000000
311
0000000000000000364D000037313131393542302D414431342D343431442D383436312D3237394436324136423938412F4173736574446174612F636E782E786D6C504B0102140014000608080075454C4834C398DFE7000000600100006700000000000000000000000000C14E000037313131393542302D414431342D34
311
3431442D383436312D3237394436324136423938412F5265736F75726365732F34454538313330382D304335332D343941342D393841382D4443463033423235444233392F7468756D626E61696C2F302F636E782E786D6C504B0102140014000608080075454C48A233C2345D000000800000006500000000000000000000
311
0000002D50000037313131393542302D414431342D343431442D383436312D3237394436324136423938412F5265736F75726365732F34454538313330382D304335332D343941342D393841382D4443463033423235444233392F7468756D626E61696C2F636E782E786D6C504B0102140014000608080075454C48BE8976
311
2363000000880000005B000000000000000000000000000D51000037313131393542302D414431342D343431442D383436312D3237394436324136423938412F5265736F75726365732F34454538313330382D304335332D343941342D393841382D4443463033423235444233392F636E782E786D6C504B01021400140006
311
08080075454C487CE25CD57E000000A30000003600000000000000000000000000E951000037313131393542302D414431342D343431442D383436312D3237394436324136423938412F5265736F75726365732F636E782E786D6C504B0102140014000608080075454C481DFE7F850B010000550300003400000000000000
311
000000000000BB52000037313131393542302D414431342D343431442D383436312D3237394436324136423938412F536368656D61732F636E782E786D6C504B0102140014000608080075454C48E3603EBE7A000000C20000002C000000000000000000000000001854000037313131393542302D414431342D343431442D
311
383436312D3237394436324136423938412F636E782E786D6C504B0102140014000608080075454C483EEC434C7D000000A30000000700000000000000000000000000DC540000636E782E786D6C504B0102140014000608080075454C48CA1DF9C9A90000007301000013000000000000000000000000007E5500005B436F
311
6E74656E745F54797065735D2E786D6C504B0102140014000608080075454C483DEE336E64000000790000001B00000000000000000000000000585600006175746F6465736B2D64657369676E2D7061636B6167652E786D6C504B0102140014000608080075454C48BC7B431EF90000009601000037000000000000000000
311
00000000F556000037313131393542302D414431342D343431442D383436312D3237394436324136423938412F4173736574446174612F636F72652E786D6C504B0102140014000608080075454C4802FC0820F40000008E01000068000000000000000000000000004358000037313131393542302D414431342D34343144
311
2D383436312D3237394436324136423938412F5265736F75726365732F34454538313330382D304335332D343941342D393841382D4443463033423235444233392F7468756D626E61696C2F302F636F72652E786D6C504B0102140014000608080075454C48DCB5721CFA0000009601000066000000000000000000000000
311
00BD59000037313131393542302D414431342D343431442D383436312D3237394436324136423938412F5265736F75726365732F34454538313330382D304335332D343941342D393841382D4443463033423235444233392F7468756D626E61696C2F636F72652E786D6C504B0102140014000608080075454C48960F02FE
311
0E010000B10100005C000000000000000000000000003B5B000037313131393542302D414431342D343431442D383436312D3237394436324136423938412F5265736F75726365732F34454538313330382D304335332D343941342D393841382D4443463033423235444233392F636F72652E786D6C504B01021400140006
311
08080075454C4828272443FB000000960100003700000000000000000000000000C35C000037313131393542302D414431342D343431442D383436312D3237394436324136423938412F5265736F75726365732F636F72652E786D6C504B0102140014000608080075454C4869432B64F80000009401000035000000000000
311
00000000000000135E000037313131393542302D414431342D343431442D383436312D3237394436324136423938412F536368656D61732F636F72652E786D6C504B0102140014000608080075454C48BBEDD1F4FF000000D80100002D000000000000000000000000005E5F000037313131393542302D414431342D343431
311
442D383436312D3237394436324136423938412F636F72652E786D6C504B0102140014000608080075454C484F4B736708010000B20100000800000000000000000000000000A8600000636F72652E786D6C504B0506000000001A001A00210B0000D66100000000
310
504B030414000608080075454C48000000000000000000000000370000006662782F45334444383844442D413735332D343533412D413745382D4330354631374544413537302F617474726962757465732E62696E504B030414000608080075454C48000000000000000000000000350000006662782F4533444438384444
310
2D413735332D343533412D413745382D4330354631374544413537302F76657274696365732E62696E504B030414000608080075454C48F270F1330600000004000000360000006662782F45334444383844442D413735332D343533412D413745382D4330354631374544413537302F747269616E676C65732E62696E6366
310
60600000504B030414000608080075454C4888E57597CD3F000090410000420000006662782F45334444383844442D413735332D343533412D413745382D4330354631374544413537302F7265736F75726365732F322F305F67656E657269632E706E67355B773CD4FF1FBF73E71C0E67EF7576C9DEF3EC995D46C6A1EC50
310
46649CBDF79E192942562825CE965D8A868C2842C8DE9FDFD1F7E7F138F7078FCF6B3F5FCFD7EBFDFEC41B196891913091804020321D6D7513FC77D8C5070EC3FFEE51B21F068154CC75D455CC028A3EA68992803810109FDDE5D5CEC5521B28A1B422BF80741695D5B529DA1C2D058AD2388BDA9F476F7C2CADC939304173
310
DBF48A452BF8A700C0C70C3D121C1AA15A5270C22E2B9E28763651F7DA0D12CE11077B2ECD0D560B5E3DE2368B1E65C5E1C87384A4CC5F2D9FB8BE39E9B77C753783A37998F5CEF1B4FEE553463245C9712270880DF339E0B882A6BA713D865F6F384C842D440934EF264F4A304F8DE4EEFA1E2BF5E2D91F5ADD9613D6E31D
310
DB33ED31DB1D7916CAF091286EA3D31B9CFECB78BB0060245B943C4C040119FF780A74DD308BA9D028678674EB5504ECF284EE814DAED07440BAF649BE4B55DA2890F4D73E2D489A59EE54FDB0A85B59F2F52C4858A02705C4815A792B0C4A996A2023ECB195073E115E3E3647F64243A8338F2000BCB58DA5692C7E7C3D41
310
3F963FEDF3CF00FBB0F831A9D51360FECA43819F527B89FA260EB63C5DA676830AA3626A3693B23F1A17A0DFFCE3EE164E31B5365EDF0C89EF64D8E38AB0BA9A1117D7C3A0EC44F44F4023095E80BA610DE336D0F99593A88BFC5306E72DF98F7FD132ED95878DF2964EA7E43071359FD83B2BDF9C6B5BDF768F0F3C0FC351
310
199526F53D9460A34511F75D1B63E488178569472C91A94497807A3FD4A390C6558F26D416365C3656DE6E769DA9D8FC73774E1709812842DD8EF96AED1960F79D21B395CDDFE6F92CB4EB962A4668C76990E2EF29798C8941D67DA50F4A5F947872460F1F6FDB794E8A29FD7AC0C0D6E0714339CE258FB17AE8535221E346
310
4A10F29A0BE5EEECEFC5675926A89F49EB14E5711894F6586DB5754EB4D5DA9C6437EBA57DB97A24F8B8A8DB295FFD73266CF57E82694DF5166DDF93573AFE9C9C5EB05F8FEF8E89E0A8917B0B3724DB7BEBB53252581EFC3E38166BA131A3A5B42FE2AD00A769BBFA4458D2DE7822F8C4F63D0B8E21B285AE13325F3410A4
310
35C648C9D91FDEB109E73CEDA7BC796961AF79175E1A3CE4C5E8B0D009B0C9E29EFD98BC8E97554E3D8D838424E270F7685226E5AC268E021EDE3522D583E8F20C0BDE2959EF5BBFEEDAB32FE9A3ED0E39F211A86AA9DEBFC68182EDED132AB8BB794442D2D7EA9F4D8BFF52BC4D55BB165124EE90A42D101E67BBBB292FFB
310
4F66DE5BF2300E44546757DA7CEF8932BFC9F92A0707953491A55C5A5ACEDABD9FA1AEA01BAC3DC5A24E22E7C47213493996EFBC369D086ED9397C9BA6C7F9855C7BD5E15BFC8C53DB3D2A4C5901A57ACD2FBDF4D1676E95338B2C2BCE65FDA4C64F5FEFDC7D9CA5AA1FCF11E193F2FDABF0F4916BF13FB916A224380E6462
310
A9815F2300DC49CC4DF8D055CEF76462F4B7A7ACA7365C2707891370BC1D0AA6203C44CCAB47084FEC057F27FFCD57F89B8B9852459798A675C66BD7CE572CAF71FF7E6D7ECF7BF62CAB7B3F1107DCD04DC55A3F9961700286141C94A4F771FEB2BCDA2DDEE0CB0BAE402FF1DB0100F8E475DFFFC074DDB4498AB7D186A765
310
4DDB1CB680D703D47CEB4E72F8CB13D86A4AA68116E26387B93FD6738779B34FEDB8E517EDF2BAF28D9BE93A1D3A164320E07D42E514725C29515FF361754213EDE06B079A2E99EB1CA82A02019EADEEB87B9AF005BD04BBCECB14AACD6B24EFBE482194A97DD32400685FF1FEF1544D1B14EFB1E7F08E6D2CD2AF52DE757F
310
35F5E62332EE88EA26417AD5C3E0E319D68F25414E6D672BD4522B278C57D18F0113921C71D96527E091F00CEB15AE23D24667369BD3CEFA10C7549D930890BA4366F4EBC55F01F746109F98ABCDD5A3EE06619C6AD78AB33E48E4C9BD21BF7478B385EC05C4F8987E2C1BFA0A60EBEDAA0AE0B015C2720ECE180FB6F2DEFB
310
EB822D96338C9B63822183BBF52FB664A7AE57003AABCE512BF77E7E31BDA2E739AC4C131657DDFE5225E900FB56CC01CDE808FA4A9C9DA16AC679656BB64796283D89812B8F91136AE18EE5EBBAF47A73BE3C153EB5D4CD491B4BFB4FE690A4CF9ABA08C0D8AA64220C438C96EA6CA80B58FE5761E697B3A292EB9FBDA502
310
FA863E49FE694ADDFFF9D62C520BDD1A22014147A0903A05B9B729F54272EF83931FEEC057BFF8C8055C279EAC5C0011804828734024F6CFA319C9CC6867C727184465CD9BB7ED386AFFD96B294A85E3802FAE47244602D8273615952B98C4F23F7EAE4463D9D638EEE374A20959E0FE519C4CFB0FBFE5DD80C2AA3F9DB961
310
D1BDE57E67C9BB47B77FDD74EE3094F5DBBE3EBC1FBDB7393F5116263009E2EFE1AF9A221B2AE234C902BF70E9F280ED23E73908361565964333A3F01D0B006AF32FB21AA1316744B489D5A198E85299241735BE559675130955C902A8ED761FC0DBE337A9F91919AF5CE32AF902ADF9AB2615E00E8A94586BA1A90839B618
310
32FF1BFB76D2EFADE6DB1BA04CCAD3DA649E7E2A0219F592E22F2AD54847EEA8E42271011E9074F8F3DD9FBA6CDF88FFC9FC7E811AD1CA8F4557CE4AFC7BBEDCF0114A48689F20A584520C74DA8127124B767E2FB91A6B186246727BE63C9445BAE02088D58B8EFDC0F1072407CD9B89A13F6303B4A928F593AD489B58E686
310
9325790ADC406036C591729FE14021F94B7796BB11848D463536A092A26F077F94639F7CEEE2A724C66EC885F4A24F8B8A0AC321F8FD149BA529460FAA34E4663C02D41FDF80BCA222D42F0ABFF8490F4FA74C673807C2051D8E467B47B616072860069A9A303ABA9B319D58404461401B0A0F9BE5E1E151C14BC33B32ABE0
310
3DDE91708DFAEB15E7C0D593C86BB7D7EC17BE56E57975F077BFD5525F3A1A361D584A75E08CF29FC7B44B2B3085014F3A5A14517377C3F6B8F37E59514C3B12F8AACDEDDA4DFC49BE5710101534CD6FB6DE15B50F11A09472AABA727F0C49D9CB906B158030065F48EB3625E010CEC1D511D0053474B11E6A4F01C0D6EF1B
310
ED3A944FDEC70E0DDCDC756C86545910E0DAE3BE3AA9A404574C2995CD5CAF9549226BC94B4F4F0F5F9086F418F6B32346464610D8BC7391D3C3A3CCF04CFC1FB2A3A3170E369511868F14EEA4E5E438CC73DB1F3248AA94B6B2FF33B222FF3D1E7BF146CAD229770158063BCE4F5391964DF62F7E52A7BE0EEA829C9E13C4
310
C147D6F93FE59E111DAB5E4594D6F3CD1AD375EE039930EFE5AF2BB2D41C83C7DABD8C659BAFBE8FAB392CA634F3D15C1D945DB4588D2B0824A4EC928AAC565557CA2F0DAA588CA5BE30B3A8004F7BF005E96CBF891D7F18112A3619FDF530DC8AA64954258E1811789B5189B49B4EB53F5F89F7D37523894F3EB57B373763
310
C91E502F52CC99EB7BDDF933FC324C4FFC2561DFFA7339FAFDD0A4BFBE6D3A8FF9ED1FC49898139864602458968913181918F719CCF5A68B2EE9C1FF050E34E63107003B8120FA982C21B30A874E4F5E4B38D5A8290C4B8D9BE48A0BE31EA995BDC37AC6DE90BA17D259DEF53605D55922FEB1855D915B659FBEB350EE0DFB
310
2F9F766E1C84CC8964B75D08667445EAB966015F63A18A9E0A325C1B3DC628C0D3CB60F767FA93CC65F25458BD23C3B312716E5F40E5858AC06EBA9AB14F95DB99147B832069201541D09A0D856E12C629CF32683760EE855537D1901988D5EBC156676C7DD51D7207CF3267AF1D76C2AD867315E44618015313A98B19941C
310
696FED3461CAA9B5415F918556D7802EDACEFD6B2E45853A9735DFC9DBF7E440F9319F8B6805A973BCCDC76C069A9144E51F187EDCC12FC31B5DEAAF0A76137199B106EC84ADA6B6EE697D4E6A96E007417F4E880E8B1E89B4BCE9D81EF611E2ED8F0C1A6C25F620FAFAAB656A7C42D464880E8AFAB0E0FC8EA38CA9A8AEEA
310
EE3E4648BA4680270A89743CDD3E6C6CBF34B7B640EFA285ABC7EA0A1E28F3CC963D114A80123EE66D0AF7D5380EB41909B605AB4765B709B808590458157E69BA1378FEC4B48CAF6A730E3BE3C5EF2DD1A5EAF94B1DDE50CEB55DDFD7EE9A16747FA4B223359FB1FCC69E1194892BABB93A1D5C4E807AC0EA2E30180811E7
310
7A2291F6E7F7FAA5E0F60215BC6024E48DE436C511F0628B8CA189982D4D83CCA17D305A7E923C37941CFDFDCD93ACAF735EF5F0E61BBD3E6C41A59B242790D3A3BAC7064DCD89AA2E37214EC839820949D5CAA31E240D2948E48F690298974A96BA9A8432BC90F5071D6537C9666EA4564796B7AFFFA548077BEEA75F6308
310
3435074BA182F3699557397F71548383FDA8CA34D99B981E72835ECDA5DDDC151315173D05A21F651AAF8524E88209E2E7A737ED1045800CE3390050BCFB8BE588DF111617874C62575039CA588EEFDEFEFE319B739DE2EDC147092A262611E159650E787917885EF08F1F51B8F2D8A71D60B58B190FEF9541A1BE94BC19FE
310
A50784DA1419FE4B0FB51B8D36B5FF8E1286FD8AF42B91E59A5F1CC4D60174E764045FD8C57B18209B217F89A62252BD20BE0E63E12B8E8F029FE19E0E8D0870F58721A557082250D5424F7909369376E41666C0EE77CD87CB283F661D5FB6D0DA023CB67320A20DC7BE661E9E1BFE5463085C557DA1FF9BE835733766C3D1
310
39F2CF9E2208873AD0EB4814DE9E6BF2CAF81614D4D43906ED1C05A3265CABBFE192770FC2F64F940CB6B17B5F166F133C9AEEAD2641807C3E69515171DD74C4A85311513D6EC9530B3B601B6BA3EBFF3B5C3D2F7D69765141E345F75433953D013ADDF8F6AA7DC3F4A7563FE5C7D367937E2900D7EAD0F9FC9A4A1A9B5BDF
310
1FEF08532660C01C5D6DE22199AA774383E306DAB87E301ABB7D213887F9869D4942D0D71E94B27EDF216A318BD488D45DF84529EF575AF3C3938C0AAA0215B01994153E2054A0B894DA5C784980633AAD48576957CF4AEAEAFADC7C587368551C73DBE1E57C58AC713303A8BFC258BD04B51724459FF9E24C03A81E0E0679
310
CEB9B348C0DC998FEB9C6D6EFA77D247CC8F92D3848599ED89A23218D0636465AD1CEEB7DC140D7426F83491C4E8E8281C2FB35240918FFECE880CA2A42D70E8B20B34DF5221C7DB0CF90ECCB9C745B37A47E9B716FF7A97B7A252C1F3814DC7B1E1A7F72B8751D524EF7CAE45B0C73B3BE7D08ED39781B380DDFC9AA4A474
310
9C9493DB5BAD07A6EA6C092FBD0E85DB004DF06B8C9D3089C5320187E4CE1846158C7EA7DDAE8AD9AFFF21AA3A1026BB06A259845E8232DEE62811A4DA9CEAB3A4887320B76E2AE5615EAB7BDF738CBDD01F1E64064BC13D9EC53576751CA8CACD58B3CEB0E6CA585BD089B2A59B9FC101403387AADBDBE70586B93D64BF3A
310
D4453EF9C3B6A93817E8346991798601344F79A83C51F3D50F7BF2683A3605F51A72449489E0EE6169C749C60B1035651103AEE24D24E51A759C840DD3FC6504DA6FE107510E447B43461C79D22970B75DE5E1BD3007D1AFC619A4A4A69B5626AF5E9B8374E20677F77E2F8E73DF868E8BEC7EBA7B6A75EEF7205E1AB9486C
310
B642741D6E03FF13FCCEDB1C4AC129886268B01CDF4B124AF797CF784F3C6DEC97A17D4B558070A0F1C04DA4FF9BDBF34159AEFE958479824B3F58EBD1E19088A2AFDE501B6F2052368A3FD0E650A179EFAB1561E1D27527077136E652676C3670F42DCB3352F48F6BC86D2C3B0051727E41A0A4DC6CE2BE9D47F5CAA2935A
310
3C0539AF080665997194ABECD723B08129CC5B6B21D2E7D54CD4D12610E7E9FB8306771A89576C7A982002775ED44F3F744CF21EEBB27A631671D921938AAEE3EB0D19CD1E083727F607823E817BF599DCED5394E37EEBC2E88782E638920CA641EF74D4CDFCDEF06F4278ECB18E31E7E9876F2D783C8BF429C75395F57E98
310
C2B495A3DA077EB3AC3C158608B6B57FE3EA48484D9A480096FCEE0DE880950E7E5A5714131C5C41AAA29FD19AE81AC145FA1B9E85C7169A5AB837B213493DF7E9AA4B5FBF9CDEB36EBD21EF1181B7CF7366AB2A951D01E37AF4EB835D1BE8C117CFBE7625D2EBCDB0B20C5A4B45CED0BCDE3EE8DA9DA78C2E21DEAAFFD119
310
7E463C33CC6A80FB785669B856EFF7A8CCCA2841B5A5369173320B1170C368B2748D81062EA0296E5E2D95D7667A4A46D98A6FF475C76AAB0A8C8D45E226FAFC9FE0133EA9F60111F99CA81ACE03A1D14C89E8B0D69079C91464FA1D99E651D0EAF606F345C42A8A1AA9BA391031582B96D5B4176A77AADB01F12FD298A75D
310
EEBB2C82F0B8650E880722F8DDD90C56A7A058E5FDEF1AC93545BA27367C76F5D8F9690CB6F8DAE141EDD7971F0FB548A2AE435F224D6E5954CA155512F7332029D5A1230854B79F258EC5FFDB09F5F6343A8EB193229B7F7E79B3E48F8E183860B38C8269D1B53738FF1E0BACF6AADA6D4869E9DE708E79B5DADCC09B1BC7
310
6F649731CFAF59A83FD8BAE4C749D66FA87A3810D4D62FFE826FA400C0F325D2BC0F3CA35F5847B82A2ACC7961745C823E4D863D54460AF792CE6F79B5C7A33B25C3AEA6CDE15A919B6367D781E9D44F61BF828672594A3E1D9EDD6DF179A81F27EAC05B936575D73E05C209DDD2115CFB705DF9BBF3C911589B3640735E9E
310
618FC9C36A7326C82B2205E244C55D56FDB9D5DC93CE958D4BF8174D2B3DA54CB3C09F2C2A6DFF73D23B2197355761AD421EC581284A7EF8DE2CE3497C0C804D49B41DFD6A7360844E5BEFFB495CFCDB97A4595911CDBA623274CE852B5E278AF0BEB1770E9D37CD977B2766A7DED0E94B840E1E95E8C77DE5CB6354AF7871
310
427C28ADBEEF7BA0A28E19DE9ACD75F379FE373EAE6DDDAE3834692F9C2B03B4FCA8FCA9ABE8EEEBEBB725B88A7C90941E850682CA04061A7DF0CE82ED49BFAFFD42C309818FAE14755CAAE78B0F73243ECCCAD7DF58FCB9CDFAE7A4D3E6671A613639130D056C8383C8F4FCF4808C331E544DD26E4755D09EA05253B3049A
310
1E32587CC25D72E073E2CD96D04A71BBCB0038FEC3F53D254199C3CDC67CD66640269431860225392B2CB3ECD0B4498AAE78BA1994246AE1EE78F2EDFB79F6C6CB6B5E279C4D373FBC21CB2698C9ACBBEB6A4BB6B39E16AB0E421CCBFC7654D81ED86022F9BB522146F9F4772E2D0E4FA70120C95A85A417BF5078B232F475
310
4363EB1750B2AC2148EB46B1EA72AD9B4D23ADCBC589D70106C3EC2ABEEED84DFE28E718C6C83502C28E9FDD3B09DA0A6F6F7B72B706A31C9E2A331EE70DA56A083D2177BFD63C55B11D8D949FAFCF90B23A1E24B9B5018B9A17E99F2890EC302F330FE7936E2C23F0D237EC8916F5166AB84B62A21BB0B950146962D754F9
310
2CC2C8877BED8FC7B7B25726DD19545392570B3A2C66B58F027BEF412E552D12A588C4A3CC5C3193FCB3485EFFF700D0B9EEC077754A33DC1FB9E25AF814628F91DDFECB667D3F7690803F38D13F8AE39353523BB08FC6760144AFA2CE28236F65EDBB3D5F59A57D612B99E3D7E5F8A851666BF9B5A6658EFC96EEB37A378A
310
BB0EB3FDDF1303AF32C41BD1C8560745D7BD81066B0D6313359CF488563D3BA3F8E2185D1FAA3EBA1397C9D0E3DD232180A4DCADB6AF25DB3AC3CC26589C8239E66E81547BC7E2F328F9884764CA37EB5DBE390DFC03A5246B456A7C3684C4377D0EEF9A350680FA9A077E8B2957B489E09AB1AD41316944C2254B5984830F
310
691C93CAA767EECF976FA5647538830B5E63236A6F0365C1E0F3E327F24FE35EDDBD7360B0F7374837409F7A6311BECC12B7026D4FA1AE204FA3F5FE904B1F420C7A9044AE58E403E7C4848E7DA25DC9EDAC79DD756FAA26B9EA83ACE8A214A2612A22AFA19DAE7DBAC5F8CDE1292A485F98DAC731A29FE01A3966E96BCB9F
310
B5A4C8830E1B9AF0C54B87FBE221A097036E5D28D1F869F810C06A9BB0AC0612F69AEBAF893C6E7AD59460208BAB3A6B09CA4F6BDDAB8CF0D1F84B72487498395A70DCD754796E271099A567A55CF242BBED64696378BB6CF25EF0FCDB589F3A82F1116D010A9AB9FA4358809EE0C973A2B4229BAA876A70B03AB49CBA7FBE
310
71DB1832FFD32F9BF2C8E98075CACAFB36921235D0F552B6A67E94E094097A5D7DF681B40623DA535ADA7A9AD8E9A62407D7C9A5AE51D62A17A83A23728DE86BB56115804D3F2675F2C6B87541A0FC497BF0CA86420F558C9859EBE9FAD62747E323E3AADC03FDCDDFE7407B09DA90B44E3185723C5381EAEF589765E2F7A0
310
99BA46695BAD60CEF3491B8A171F5F56444F7CE9455312C3498C74173AEA0214EC029833B34B650CBB5A5508D5091665309642791708ECF27CF11DB3D797D6CFE474453BD4BFADB768094B2147814D81C7CBAF8228DCAF5564B5891F5EF6A860EB2E323CB82AB868D8EA048880D63B0DE5341F1B3D53297B928A11E15F25E5
310
148990F710747C3509ED14909C552EBE3973246FCE55D00564D8310BC3EBC5085D08D806799B77D6C57FDF5E55837F9E934F09C03C729271B64F12D0A9F9E938107CAF7BF1EC8CF1BB9B42363D33070F4CACB425E605DDB0A34A12BB936DE286B9887A4E2E558F0886498BFF49C311D96C277CF6A9FC0D75AD0ECC5226D7E0
310
E3572012E56D7FDE4410CEC7A6D0F997F225A2055B8B92E3956E875AE4993CB3D4C9063AF98FD45E1BAB165640A43439A2C9181A7C355B297C0A0CCFFAE19B6FA3C2BA238A885FBC98B8F6DAF4B94B97304878DF4D8BFF6A4AEDF79E90ED4E68F00CD7299F4E0D83E35601AF0CBEF18C1E870E74758FA91F5131075004DB3C
310
FCF09AE1DABC11957FD9808C92E8A678CE9DBE40DDA0E0D1D505AAFBCBA208232BFB6FB3704E8985E61ADE53DE74152F5C7DE74B1DEDCD37DC3E8FB30D7EBA8B9EFFC3606BF90B8D438279CB7709FC7C00D327F41817EEA71CD9E49FE9C8C9A81C70915D9F0F15958EC5AA4C3BBFAF46986B90F188BDB24B89DE3C6F29EC3E
310
6F66D84856EE96A35E657CA41B41EFD8DBFA16AD6E91439EA92B40B21C053249F51AE50EB0B24C770FFAF40DF12C8436366819C48E36547D4E7B72FE2BBF10828583057814A668BDF183F6B2E58DFB151103E56303E63D00F39C27C4661605DB644D19175D02E3F0241E8FC3458D17AAAADB117CE9EEA690D0DB01E634878C
310
04C2C9310B69FCAB831151E3AD293BEF6E46B0ABCECB50F5939B39C613D41E81FAE8D34CAE3C4566B761D37185FE864AC32FCB71AEF39DAA5BAB88609BB980CD2F07A8F941653B529567726E2B2A58D079DD57E1E5E31426CF184A04D7B03B985F276D47406AF276FE32E3328BA866EB1FD39BEF57863A317634AA5FE46740
310
9B3873F5069EF0D71AF00AD189D17BA1974ECDB2D623E9E14086386A6AAB5807825C37B015BFE892AFD154920EC437EB945D958E18622E1E0FE2FA06557CE4BB9BBD05A2D40E774DA2B65473791E314B7D6C886820B2FCFE4AA272B3B8B15E7344A145E8AF919B5454D89D36D413E87211186BF6F645E5EC94DCCE8E1C7990
310
22E4EC9BC86D7A0F2AFB1FC4B2CE48F84B3F49ECE65BAD24CADCC07EFF39AB06BE9E6B27A059938EA7208838455383DDBCFCD967DDE4650EF92A14FF933C975DB20BD7FEEBC4487576485963D757D16340D9599FEB362F775F38CA4185A86F74B629C81B133644A3B18FD056E997E0734F9BE26D11C0AAFC669E2AC9FC41D2
310
81F8B2E1C35AE27BCE05F3DA295488096688719D974DF1B5D182DB7792288697F8763CFB43562C1CDEE11C4AABD5C22B6E33F6F389CFC3477C5919DC0D533F8A7A1846B7ADB60ABDC26C43D0CFC8910B7C15EE22675BD02702ED39DB77A87A192CA7A543E6205B979B9F5A6B512A3CA799E198B2D5797C0AF8D1D872CA455D
310
4D431A7879D4DD76110B5FF7F4176B54477A9EB5E4A5D11214FDA585F0382751D8E2582BA5D2075053298FEB8F1537304E32CB22C2E2B693DC0A760B1DFCA751BDC445AFDCBB12820ED85F6D5298933C7EF1211E9E057684056CDA3FEF3BB6052355E162DF27C59E965A8DDB7F9437EB72CDDA3A090DE65A5B2F50326247B7
310
EC67B73ACC7047FC9B353D6EE990F772207C6EC52B39DC2F3C0754821DAB559F7C1809C7D0DD5B0499D0442E0A6E391B3D5DB46D11E731E6794EC77523FBDAA242ED67F9FA1FB684255671F63C9BCFE6E7E896D51001A6113EF2298BA494E0B0980D1FA5B9D60796554C02256B1E0345FB7C6186B6A19D2DCA270416262845
310
FA4F42DB5D9B0A0B6F07FCA2E56C242522E001E0CEB734AF310FC8BFB57E38E03AACE93B3326A2197891E68452B26A6307FDABFEE0223D3C03C3C73D2D5BC054C8311F12004CAE488E5C29287F8156A2CAA4AD0D7BE6B97264E4139F437CE73ADF52E5134C52B819777C18B323A5924E4F67AFD13B1CDC3A61793A79FAF5C0
310
CEB718E441071E797C6DCCB9EFCF7E4A1E9F3DF3C2F9C9E8294E9586868788C972857FB0556D7A26941A7EEB9B580AD78EC40B85DC906B4120A563CA3B87797ED612D3B035962BB75F6515A393F4CB057F564CDF54F2E5A024514E6A1F901DB80C7E70B1FC05E356A7E72FABF4775B3E3FB8F70A2A8E7B6A94542BB3041579
310
78CCC999E707A29CC795E67A59CC546A5D47B368954CA7B6E75EC9E1F6FC73CE3B4F71F8CB1A6B15923D61EAAEB14626AAA9D04A26EB9C66CD1BE86CA31A5D8703DE04CD1EBCE4F5CCB62F93909AD11E55799A781A956ED27D3E738F4538CB04ADABC7DAEF20BC35BA6A90BCC1DC61BA05F20D8832FFB9BC9B15E2DB838A0A
310
FBB7E0C82A562127E0446894F427794C3037186F622BF24DE1B00AA10A23BFA47B2A180D6DA5AD6F7326FEB8C100C2D7142EB2A0B2A9D1008A09BA343D70E054AB69E2A7EDB783CBD92537FAF4A44D1296AC2792729104B3276C276C951D0CF3CF3F1E6B017720A7B8505A5FF9589365979678C36F1BAF759EAF57C60F1FF5
310
FE9DCF5F8E764FF25A2D06CF25117A8FED51884C13B2B750DB0E4F5E3D64124FCF11F0AD8F1CC3B3DA4B38ED22BF1CB2585EE6BFEBBA63FBFD44F9537B9B37BDD6B358720F98A8125AED4349CCFEB0E135F19E208A04CA7E2B10711185D72E381F448036EF57C9F874E54A971CA37A639E986AC0226DC5AA00D5B14FEA9192
310
234B3DE617814FC221C92F33F1D392F297731B567FD98FD91D989379AF567A65B8ADF177591DB90FBEA99BF4ED11B16E50A0AB1DBF1156D034BBE04D69D08F939D8E92BF525A1DDAFF80ECBC95D8F45D3FDD289FD23F7D8B452F8EBB34EC082DEEE68E18EDDF072060FAD2AB1504DD4879BF67099FC58F6E9DEFBF645D1633
310
4A3E9A127C6F1AF6132CF287E433B43A0EE93812B4AA0B194E03EE3FF91EF9C6ED0074A2F6EB18A96A7C9890B1FCDA1F2095E944DB911ED54C60DF16FB74C8CE9BDC7C54C4F14078CF73C2FFF1F1BBCCD7CF64F71407EA1683DBC410D226627F66E509060D5C0AFD611DE681D509DB8DD12FB1265B03C6F5C55FF4C30BD941
310
87FF692B4F152982502F193098A789526A038AB529A52BC0DC4FB6285CBAC10A8B8DB75DCD9BDABBB221E27D1F8DA9F5EE5926A1C8AA9BA9BC09239C6A7F12914EA3B59EFF7AAEC3FFCCE56F1C5C2980AD072793527565E774F4631DB178CEEC691B1F367BEA0CF2907E1D6B854D527065979DDEF002D8B2ACEA7CE21AE297
310
737EDE1D45B31233B73FEA35BCFDD0B09721FDBAF6432681F2FD10C3E9EFB246FD6E854B344ACC9D8A0EEF876A7314B49B6A499FC650B099D650DBFEC7638ADFD245E2B7839DA5AC5F7D5623FC0ECEEC8653FC9B2BDD1AD4D00A566FBA7186DD3C9CD26512551637498CADB950FEC71ADB9A5524285DE328B8EC7EC75D2345
310
AEC6A27C42AF6D9B92155315C80DBFCABBB7DA0FAE425C4FB896B15C9BFAC4FE67DF5A23D30C93DA4D8F36FB15D100050DA6062E22AEC5F4DAC4F6FEEF97AE05DE63C6D38F9E068A20BC5E3B6BCD75320C5090924E7F93640A7735B1A43451C2D91EE62C6238B797349E59890AF3A520DF4A87095F3ABEC2E61F0593416CE4
310
6CDCBE0E00E2523FCCD04408588B5B6C9DB6459C786CE378770B54F51DA3A5E1DF2A3349BEAAC234A6CF8993B598B3B25B4B113E353A4D750FA7534749430F3EBF2512E7EA3FD43C6AB9A1F765A58463B306721A15D224FAFE8C6F5E3432D57EE697DA0DD5A9D4866A8BCCAAA9DFF1F06047851408FEC060471D0E3EB86BFA
310
F46E4B5E60311DC3E3CEA147C75CF971BE74689507154FF2D2E92F15CDB2B9182B11459FD8ACAC5A85F174BC94A7F4EE4C4F5CAFA7C02E37BF0BC77B7DCD0C047BC316F562A01A441AFA7931CC84A28CB9F4AA367EB515778F29BFE61195FA671F4352E5E46E3A64773F1F76EE5EB36D7BCE9BCEAD837A4D77F8DB8C92AEEF
310
6711920D7C7D0F76B0FD0EB7AB83724CD35BCA7D36DDDF5FBB7FF6F04A91F3E2BB3B8F1A43CD659639507FF6331C5F697BCC782AE57D757A27D97F1AB9E0AEDB43F92F1B2AACDF5FEC8ADBAF9F814E2027003BA2F9E144B1938A7A04050AE5D953B82C45619165C813A10E76DD6906B3C16438064D14CDA713AEC420034613
310
E1AC7241904A49FBF87409AFB1FCB9B72FE7933A87D8FBEDACECE4EDCF6A4FE9FB94D5DEB74FAB7CFEAE17EE965DF980DCCA2D04134994F9A2E94D2265DA4FE6AA7B7AC15FACAC2B5ABBCD7DFF542C5314FDAB2E1B9D8B65220B8E2B638BE008E8DCA22678C820C5053664D15E89F2D735B51A84955E81A443545E9FF787BE
310
0FA700A76D136C27DA179A7C6E8939E01BE756E19CB292798063D8B97F44E8A27BCF3A614FEB8BE974A718E86F7EC99B53CA35FA24F61F2B07266684623A3D4CF073E511F3A10A8FDAFAF0078C577F4DF9D339FE7862E5FA47CF4344209E5BF76D783B1B48E152AD281B15FCB934DCDA49CEC5706B1EE8B460F435324A5CAD
310
154725E21AB8044B75A557A79F6C807B9340AA3D92503E866F4274412926C8C504E4D5EF8C0E68DD0B028781A6B4054F11CF18941F101C57CCC796773ABC8DED9CD91FE5788806C05E548895354AEAC96546D55B0E94A59F148D061F42AA398D822CDECA4CDE79E13469BDCC44FDC990F366BA5978C15F97ED80CBFD73B0CD
310
9B8B83A4F6845BDFBFAF034019473FB9A63BD55D3A4A7284757071574029A4D016DCCBE95DD679EF3C4880BF169422F8C89B68A988D2B13793CAED4F74DE7486C72DC94DF46B8E93D8E02EFCB1FF9B3BA10C8AE7F653DF94F4AF466CDDCEF5776687F7C4C14B63E4EED1719DC2EC482D7DBCC7AE518CDE3D5FF86D39000EC3
310
673C0044E1D308BF05F74D1B5F033A7D1BE7F74BC55BBE3E4A20F920946CA0271EB17BD2B80E5660ACB8A29A79F5E4BBA49D4D945B6EEF4A7EFEAA65E5555BBB57A7E15D2F83C69F30BBB978D2B39F1F26FC097424D39BB33CA3D87ABF64E307938B685BAD44F71556A30B7E712CA4FE600613C3E554B69ADE949A7CFE214D
310
F1FFF05CB82151EC6FC31950239F94CF7AD39DC473F6EA356E5EC2C4EFA04383CEFE985A127484366FBEE3C0EC4FEA363E4F6632AE781392FD45D67B63FB8DF70E82734F431FD3443172A0E30A83D60982D55FA6A2CF86DBA8382502ACC6CDEF3B907982EED1160E14863FA242F9757347E1544275CCDCF71ECD5F8621CBEA
310
326B8BA884AD7F825781923E66971F04010D574C541D8427A438A37EEF8AF88240EED7362C953F5A81DE2D56109CDE2524EA0F5D2F87308C0C47BD97AD605878AB8589E17CA83930CB5E0DCCD75853D68B1AB136594926DE426C367428E9334AFAFF90ECE221BB5DC9E5BB53D2CDEF954EAA9CD814F0E5725F1965DD458E5F
310
8487683AD86B9D0076BE3EE91EB1CECC5331A67A3F79D8B27587C12EC2A6A70474749F27B4C0BBAFB94B34189E88DC18964BE4121B9137FD516C7755356E50D6714E31ACD222621EBBCD1CFF81D87479056A9DA0E0B8EA19D24CF937DA89F78E8650CCBDC110AAB6C4E46DCBFD0446BA9E2060E81F314AC2031E88135E5476
310
AC0160EF5C0DD2EEF1B8B5CB2D198BE9A554A9093B5F7D7E4B5407DDFCA1D9C152FD97F55BFFFDFE802954DFEC8995B983E28AC92F1971E28F531DC407A1280EB125F64A72E617EFB27DFBCEDCDA2D6F2BDADA36873EE46B9BE1782998C63DA7182BC383FB6FD15DA472B175D7E8B4FC88F38D6E07FEAA3FA3CBB8F6B449EC
310
F14D2175E5C5CCA3A42ABF24CA6C9395AF74535F4DDB38CB84F56614B0FD32D7E19CA5CF988DB4449C40E23DF2B16772594554579094450F56F253CD25EA7F77366FB1CFE79696C428BB64D5A41E986189427E5E4D7E2DAE3D5BB4972B3DC44EAABDDDD63A2264ECFA5C786EB0EE1FDC5BE34FA0F08376869FD1E61EA06CAE
310
15191135445EE8F0394161C3266A596AA035572BB0C8876180D8B9C77D307DF9DCDF7365ABDA6F3A2366436457A4DFC1F259666569A9E4A79C817BDD5610E5200FCE894A358EC72858D50EF67545DA81C6FACE3D457BAF70367E1E6BDD9A952FB4F56247F58F523B97E640246051A72F79BE42FFA0B3187F63097F91C48B86
310
8586F714B0EBD5A00A8412C1236E1298F60C72BE6C96B82B404CADAA304AE9F303176B14BA53FBC2D5E86377E35542019E24D97B96A49B2C0E5006E7795954DEAF5DA58958839043C6C70BD3B1B33B6DC5C31316D8A6923F142E26F6711A2258AF977DDF1F970ECC4F1F2B434B96D81BEB6E89BF3BBB3C7C8CC80505070723
310
D6D7D7D3C8CA27CA164A26024FED94B12A86031867241DA53D929636DA600F050BC40CE48B8BA03D69224720DEE2ED2127390BDF5E6EA64527BBD4C4C63FA76BB801FEEC0E61218EC98A8A86CD8313781617877E66692839B9468CF4DB8E50A73986E558E309C0D6F676F921BE02F1185454DC75B111572FF9D27D85EA14C0
310
5AD7271225B391C4275659CA4A43759D0BA44639BE4C30A84DB7F67A41399FB95CBF923B1B1672ABC807C1590557FB18D811983FA97F5E609516D62281D38B1281F68FC75528C35E4CD7DF0F7DBB5E5DD69C414EBEA2F4A5B241B996BA77AE6C772E367408C633EA3E438B68563EA8BE7667F3A4C4FDEEA52ABD78A2820F44
310
3B7914A15F180018D231E64519C56A12F6CA7C8DAE18F06F6B769DBF92329EF6A5D18FBCE600F36BD8E8198DE5CDAA96181F3A756EBA5501CEE58F497EA4F418A2B82565B9BCC611713C0B708CCA1F398B78C5F7D03B3437CC18F13061F55C7BEDADD5ACB1DB0E36D3CE47FF6EA1A563A57E9649EA5D14D1A50EAA45746338
310
1C073777EF1600607BAF6428A7DDC079D47A204EF1E1F1F0589FB054D45E02CE623B3823C317C601E589E22B1E88B448524B86A82828E32345EC18AE17214B42F8C41C6D428016D9BA31DDCB47572561E5A402E5BA4FCE55F78AF7268524AA04130F3A20BA5D1E9F9948EA48FC8F5314FDB35E21898198060034ACE5E3E2BB
310
CA34092518F275190AF65F45867FF0900AA4B81F25427414C372BF51DC29AA855C5428EE1EEDD6B849AD60F6E73475C2D2523F8A2772C840A478DED18A8C5C91B085F255DC4F54EA7AA8947354FD17ECF8FB3B4A0DE7B483CAF3A1165EE05BBA413E5C1FEF3DE1D6B8F2F3F3251C17D9FCAB48A9AAF63AC773A0E413BBC46A
310
9ADF84A566FC920E4D8C52C9769EE3301CADEEEDD92B312E02E2A7E35B7F1E7D203FE5A7D75578B06E99D0E46FFADB8FDA17ED8880390DA29094202D6F645F76F6F96409CDA05495A96E84B04A00D1A6C6C81D7F3DE9376E828CCF144EE50E364ACCE7237EA0BFB5607ED1AC3CFE73794E5B61739D14DF1743441B1AC98F00
310
ECEDE9E7301FA29755FBEFA68C91EF2B314CF510537EF1ABFC9A762496280B546F5EDAAF8A5B387D469FC9A878A92828C88608453ACEC6094DCA54111E7AD5B2663DFE2DD151B7F123B9F4FEF8EE36AB125FD7AD52A59B1B765B3E3F73E3F73DEA93875004D2AFFE3CDE9493B87A9904DD052028949041A91DC0E1BA47BA71
310
4343FD5B25E0A6A09503AFC17C790058A836A324FE31D7893512E28230332F153181C1E018E1124EBE1BA262AA428A518237D1EA7275E48C5C561BD19ED6912EDD8367DA0F31E40EEAE9683DA9257525AEA7B632B97119E17145A90231768A4F3B9120FF32E8319B015E3CBE26F1A754177D8185345817C096B0CE443A955D
310
13AC15E1FB5DEEA0239EC32A3C92241A237B0B02FFCB4F93CF2B02570C8D192E2F2A68CEEB42F12E6F8CEEFF46C251E22B4341C56FB08CCE550E7A9D6F4D6564B9EA52A83D5BF2C6E03FA19D2775E15A8A7ACF30A13C259EE7F5EF2AC3BA354F1500E1A07FC63FB4686E2F12EC69719F9ECF5FE3F35598DF2CE944008CE78F
310
0911BA5BE5D0A34E0098FF038669C26030BA9B300303039852A8F6F496341737CA7E0D2E3AAA36DE0A70AA7D9CA0D54D9AD84B18A44C9E625475E1C97B93BEBB38DCE7D227E67A2D00F531436136355F243D1FC0D712C5765754FA22FCFFAE97919161F46D6E61ACB37D83777B385889770B50765B127768443A5C4D3A4E35
310
A3151111F146B7CA116F918A049F1C272F2CD7976C69A0068773451659A97E0F4A08FE604C3FF6CE7385DB19F4D3ABC8A0D80DA8A42096AC377DB49382B36E270B6FA7570188B4B7D1DDDDA82ACA487CCA5D38BD3BD039ADBAFA4ACFF27809239B722081E2EB9F145320553D183F28471C388BC8814E5045676767AB58A8E7
310
2D1CED2CA731379515D2E533E4CF0B39DFC625F97AC4836831A4DE330E87A8126FA17EBE583D614E71E22A8DBF2825599743E0640037303E8E1B1E8EA4E1ABFA4F62907B5E4E0E5DCFDAB417C36C6848A2B8D15F1E505434C0707E16B1CFC2A1C36A42BBF55734F8F4301DDC2A5110CEE8C0747F69519265012A2174BF4E95
310
5ECD4FDE095A3ABC70536B7AD0B9D7892F81287D667C108703C9B66A221E9A0929D030008F77FF6F5D2108EF5706FC87A3069B976F7C9FC3239D13D283CDEA83597461079FEEE049B0F392889898B7D87D31F8D60ED7B56B91823A8E4EDDB36C6172ECEE42BD42B12CD67994FA0F0DFAE9389356F4CD4425A4B8AA55CBF7EC
310
D585C6A2C2316791E43D5C06841ADBB226A87FD61515FFBB0167B74E56BD7F3E90A57A97FEDCBDF483A0D6699A8C0849CAEB4947FAA90D8E332D9DEBD9F4738C37DA0CAF9CF3DAA68BCB67C420459C7A64498D6E848E5CADE92BB6901F607AA331104A67F7CD650EE169B1DAE94D2C31C2F993632259B6957E246EFE4C5481
310
107B07118607700040E5812A2A2A38DA0076875258C753F60E0F2662C748EDD5F3F3686B8FC3BD6FE631ECCAA1E8B1C1E565AD117E54893E79F4672E32F9E46B2A183DFDCF3EECB4D4D077DBEA0DA254D256045109670050129E9B9B1A9E4A11344D61497A992778095151510C4BB7EF2009B63AA4360635312E4CF668B7E0
310
D3D85A8688E2BD83B569439892ADB63461930D428E0DE42E4AC57CE48DA5CC1449530D8BD3D6A0F08DF20C8E8F570F2CFFFCEA286E30969B4654D498A58D9DA782E19FE3F002181838925592C4A1EF0B332D88B61A92C644547BED490D3A42CFFAB70E36D961F694F6307F72FF15A1C79D5B1B5CEFD353D9E2B52566DEC8F8
310
F09CB3E8359C0F68EBBB7898243E34E12A015B2685AB303C04D3A9E00671FF3DFF0A184E4A2ABEB2B666AF5B3A209C73D8EF29DCDB069C9F391EEE9DD0F74C7BCDE16F8F02E3B8816122BBEB50665775B600549D8BB33A54A6BF940C028118BC6878C79958D6784F9DEAA6E26748386FFAF8D0D0101E2847B6563F5D8DC1D7
310
8F787BE00E2C941AE12148D4A81599FE8F68D4DA5CDED75530ADE138240300EE13B0FC13A1687FED6774662C05A2B7DFB186732F0D7A93545D8B0A6390AE5054D9CB582DA846D7A061B3358B45E2B52DDE63E114397EDB7E09233A579155D795BE76102CF277F4DF8B188C4F2879BEAE3C08347124BF9ED23B128259FE107D
310
31E34A652F090B30B39E0D9AF917B76A2806135621A8A60681F16AF216514BBD02711585B5B1AE823F4B2D0369EA5B6BCB863072727FFC871CA6C9AB79A814D989057E9470A3D238BC87CBB4A0EA49AFE2B86F22E499793CAA9047080450166BDC357524561E258C77CB697F1ABB32562CF87C3B7AA12F911EF19FB3E5C022
310
22E887D08202A60A17151F5E053A86B437771088B4FEE14D652C43E8D939995D34545E12E2FF93D4E366EAD25F10CB7DED141563C3D0C447AF06078A91135FD4B9611583CB4BF3BD167F2399CEAB0E0100F8FFC305F00F1711717173138B4B48C83022295DE657EFEDD97F238ECA80F528AFB4F8D67AD4E2594B9A3AA86D74
310
87EFC313BA95745C186F0CDD84CC12DC9CB0424B42203D351FD9C0A3AF10CC7F388E0329279087386421F194F4A29464C1DEF7EF8BE515E4A199DCD5B909342598D8FE6A231F71336248D5CEC5454455C7BE383B3BC7B260FED27F703FDC39A170F3827239102F59D4DEE7FEF82EAA1A5E4BA94DCC4CC44E7E2EDE20F24244
310
E4454369D2E87C3F823F193FD4FD27E1C23984B01898D15ABC20711A8A558054951A6AE280096BA36CBA439603B7B0B4C45F248C14B2383B4B5CD8ECECE4FF859AD4A6CA2326D020EF090F4041D28DB66E5256B56232CC52829DE8060BAE6BBF37D4B7469B822454FE93210A3E8D15E69FFCF01123222611C51C4FD0A041A0
310
CFA2471CF6BE38D2B20FA4C3525B5B8B586759475CF80ADFE67A284AC24651E52B8E683D24C2622642F27E7C3C22783BCF63648BC398BD6CD0D9C97E7E7E3EACB6126DB7A6C1FD9F1031302EE67ED96F22B77C7CA0239BB324207559B105E4693EB26EC46182A92C9C0DBD24F29B31C5C5AC1F84300E0E17CEEAC15F5736FA
310
4A98971E2F1423BFCD68D4BBD5F86E74B40A369F39507C88FCDB35D2DD8DEBEA4AF999E23CF2816D204200DF6E611781B9884C1AC8888B4DE397320472959434323A5A36B22A8E1F721A270DF3BD65E4A31C11FF048AFB0D8B7B6881423793963A23CFCE935FC189ED36FAE35C46DA3574C979E4394BE52084F3081837BE03
310
3396D2EBD80F1F691B273F660D2B32FA27A33B1DE4ADA5F0FA4651511102DFA410DDA86E065272CA314D5249DF91B06BB92807B28EFD54F08F7B525252782CD276DD02E6B0319B13DF87B1F6361AD6B28FC0D711CF445429B9E5A433CD493051C49A9E03DDB1B147D880253514A5DED88009018620EE229101C041950E2D8A
310
A8E1F5F5438E0C0C0C60EEDEE9E3E0C051948C69F84BB7B2A48A1F3C8EB9E6864687F4F4F6F6E2FA87608ADAF9C5E117B7C1A737E710769DA1D15ECE6A84502AA855398712D5FB51BE92E4EF824969CE18278798AC303C2C7980DD2500ADF8FB1E6D6C2FAAFF9987178923334A244758BAA01A9A1B70FA5097D01E1CC2A58D
310
AD0EC94CE6430AA9B0C10D75E3C6BAC670EFBADEE1607739CE0FC18A2587E3EC3058562014C64219C69BC269082D5C2F4A659278D585755912176D78A1B641719C2A394CED495A1AC5D583FD2F5EDD93308EA7EAE8A6DD396598BDBD3D4CFED62D18A5BDFDE0DD5C80D1A89BA62697B131AE7CE9A6594138582F1B37D68F17
310
49AC7CB67A70695D48A4A056AC1FBD4E82358CEAE38F54B95A9016F9000F9879C0D9D131768635CA798895F27D6F1614F11F2838A83611AA51C9A3DDB539D42979C29F10465655C17BEC3E2760B80DCBF609198C7B171A531905F3EC218D696025975E986C6B4C666666787271F202805577DD5A3EF0CAFAF91B62DC4B2DB4
310
217A7606282F31D8DDBC290593BAA93EA6353AFA9939B877978481E15CFC9F2755CDC00C538F63A4BA3E80AE009B73CA0185687D339A507D165B74290D6EE46D5C58148F020C3668ABE9EF2F7549170DC80DB41FFC1D678FF19AEB10C7133832B104B80F691B3138F97A92D26E551F1F110400D45AC71A9B9AC41A1A1B1DAE
310
ED0B0810638EFFB511D46B121C6FEA0F38CD00E03CFFEB9713FE1F9C263E4DDEC160D0497FA9A132BA608584057FB15380825DE6C7FC3C667EE947D488A09898D8E939C4953BF4EC9836344D2CC6B2971B2A21A572B06096F4982D2CC7232D46E8EA69DC83722E267754D777F97F96D5DA74E1E75178084D0E70F12AD33E5F
310
71EF2AFA599B2BEBF60A5BE475F444F240CBFE8143C334E7ED9150FEEFEF7EB020C4DBED388DD1D6A167A76F3CBF119B578AE8CFA7736ACAFA4440A1C47185638A0D2F3EB5BDDEFDA958FB13CE4AA4923D5BF840392D45544329525749734866684BF7F8D9D54D892E19BCA9F829A0F8BFCBEEA6CFDFC61D74EA1A645ED7A1
310
FF241739F15694BD835B66FEC5677E40FE69BD3F91AE402F036537218A401CB0828604AD189E575015C6F3F6BBC8AC79CF6C70653847254B31551EFCBEB5978B9DB85D58D0FA41A9DFE9C624834AA04949D24B5AE6D299E072D152D12097920F14AA92C31C3B97E28B6C2E6E9C23D63043ECBBC0A60FDF5BD0C33C127EA8A3
310
308B8B6AFFEB28B4455BF6E7AF4FC6222728357EB8E46E85053E6A8843AB23295BF838ABDA94658FEF3F832F147046B4ACD6F7D48E8FCC9618582961C898D1C7A253C91BFECBDA6BA18A1FCF70755DCCEE2222F41B76D23CA98D0CB3D95F0CF66D57FFF65E2A90F5DF40FC3187621E981BD0BC1D992787212688976B94A8F0
310
C6EF646624B570B78E068826F87CE27041A95C9A4871FF65CC17FCB1639629AD6A9517000D63AC231F3D741CB8430777E7ECF80CE7A3F73C0F162F7E56AA71F4DA80A33CD6ACEE78E2C11FAC03DAFCE929B106F8F6B3ED2DC71FF994BD9CEF4E9A94896EF1B6E2B7B4978168BCF0847A3D2A4F1B0500B926E634B174548E9F
310
BAD27153FB5FC36799B1E6C7C38A94E1F9E996796D7B485E635D5287A2AE76FBD11A341DB3F8F810385BB7296391973DC6C37C452A9305AEBBE0CDB6C566DB59FE60C8E94B1FD090354BF51439FFD1B48D725228FFA88C84F686F547107A7A235665A4593B7C34D748C1AC8D56DD5DA861EEFBADDECBBD65117E65851F9035
310
1AEB65F0EFCFF4BCFEF24CB7A5879699FAC437A7AF9099186CF006BB923A59E37D7A36A29FD8D2CBB914A5E9D0A8FD212FBF796AE9A67958FF1D5D8B85F78F96219D4714EB919929241B6C018AAE0C02069F8D919961EC5DDFBFB7573E3AC8E08BFB7C8534BE6DE045B3CD63DBD71F7638BA2309CAE398EA3A7D8F98BBBC7A
310
EB367EFA5CFA27A9F8F2F52FE878058E6209C026453F8E7E8A237DFC389E9590F6059B397CFD65183BBF936E86896612A5B5FEE49DAC8455D026218AFEBEC12B3523A45B57B82C9C97E02ACFA1184DB18E48CF615DBF39C3CC6F0B4AE6BBEEA2E39D944E290302FA3DE33FA7E40296E2EF7BF1CD855BBECFAD0FD622BEE974
310
6FC4FDFDE545AE6E3BC234CADF83A0FB76DFB145BF3828AE3436368AC24989454F8FF70A177672C711CAA1A76107218CF948CA01F873520E7A2B118EBB161ABAD432932029628B6761590C98AB590C8C8C79798CE9F715BA696E839E9131A4BB68BE923F1747FBFF165331FFDD4D05997ACD168F12CA75348DAC04C7F509FE
310
83898A8B421181AF492861CE81E4A2DD0A30850CFA95E05F097FF70F9E777310D584A75BA7018922E271DAB1D785671157685B7D383D3E074DDB4F1E44EF04B07BAAC75A062077C54B9752C738C9D804D402E02851F3F89605AF189738C18C021D2139EAF72513824E10DDD3047BACC8521ED7E98B257D1166903B1B08FA6F
310
918FD7E162913FEC7D0EF4787E29C35FBA8C6E2C9C20E9AB30AE42CA2A01A090E7D010C1B5BF9CEE2A304BF3A987FB40D836979B79E18D70F257DA61E808472DD85B82761825779D6B90CAEB0F23360C6F80A7D7D77545E95B3DFF0CF96A827F9B5BCECD2C9698718417EF80FEEDEE938AFF55859D0D540B7FE09435583A6F
310
04874A0C7E8CF234DF4879722000167F5872CEC6BF3EF7E5A8CC8121E6A359227C8A29C95212F9F735BC72A887D56B8F309FC525BFB4FD767AAEC4AEFF249CFBBD2DE1AB9969A6155C7D8DABC307E47324C1F916C7BCFF40ABA5644E9FFB9238D19ADADA49D9610F01ABBA57E4DFCBDCCBB2B93C8953206C91DE01B0E2651A
310
6D6C31721915B31F7B7CBCE55466F6D70402788FA91D73BE4ADCBA99A35F17D6B83383704917D6833F0FA3CD45C926ADB8BC17999A4A0AFBCE2541F7B8CF4C2F5FBA611B3E626D64407CB32C122DFF4EF8674D6EDBB86C8F7C6A16D50FA685E2CCA34F8F7D1D8265BB0042E9D7F1F666F7BE5FAA5184DF58E12122A42EF02F
310
461B3F369AC746F96528AD208512AB56844CF75B97F352DF7995024FB02855385854F3798670D01CAC771AC3E1889EC25F61A20C1F8CAB46898817F9C47E2CDA1F286BF2F358298709FE567C91133E2638C8B53975E753EA8BFD3578B5F7186B7BF084EBA3F77BAC3132A5779902EC22AF2D2E79F42D324E083386DAEE9810
310
D1B44A5DAA54513C7A71E52A4AB9257D975B621308FE4D2141CC3DCFE946C154A3C1DFCCA7629EC69ACFA831634ADDA93C0388D2A9A2DDAFCF957C6995BCE7FBB6DC4EBAE79E63EB08E9A25F52F67076F7093CA545CA3053B5BF576DEAD4E0017143C5F759F32B2D6F145B52B67B48909B7C7FCA6586EE385A2189C16932CB
310
6DDFD9152AE317C430492A578ED27B72D85D40C7C93C097939E1B50F4D67F05334FE9DC362C30B7FF561B95259138ECFD9274C8D695C31B14D4EAA9F3D7FA8DDF652F8C5DEFA23284C799B7D94416DEE81E05A866302DC70192A5368EA65E1CED8BF107A1E2D3119A71E85DC1A7B0C1E93274CE04DD0F2ABC8AC7C987FDB00
310
2B6F81757B43502EF7A0D92E416494FAEEA4C9C090CD9557AA4D532F4996A272B94355C5A0E4974EEA9627476F30809B94D8D8D860062E02204643BEC7D0438AF800FC7E2B26955D595421E83C69E1A07E0E3122285835F014AD538188CF9737CE76D464A353FA55A001AB2526B84E985083693BC76FE211CA1D000679C889
310
E3C009832C87E1AC2EDD05C302557422DF0800E316FCAC86978A371F025A6C7DAA9F333E7BD160403A1A06EA75AA9888FF01504B030414000608080075454C4851464CB48900000043010000360000006662782F45334444383844442D413735332D343533412D413745382D4330354631374544413537302F646972656374
310
6F72792E786D6C9D8F310EC2300C45AF127987122606C71DD918B841D4B851A43646695A717C52A85029031293A5A76FBF6FACEF7DA7264E43906840EF0FA03836E242F406C6DCEE4EA06AC22492573150D1F66C60C640E8938CB705396EEDD86DE9B5042FE27813D640EA63BB001C722AF6E55CB61E4863F58284D5D3F53D
310
D715CE1C3985E63FD7F1B7EBDD617E9F1E504B030414000608080075454C485C47C5E837070000201C0000340000006662782F45334444383844442D413735332D343533412D413745382D4330354631374544413537302F6F626A656374732E786D6CDD595B6FDB3614FE2B84F6B23D5817CB4EEC4271E1D8496114698B1A
310
1DF626D032E570D10DA49438FBF53BA4485992655BE95AA05802C40A4D1E9EF39DFB91F77E1F47E899304ED3E4C6704CDB402409D22D4D7637469187838981DECF90C7D234AFED335082637263886563E6ED585A646A694B425C44EDD5FBDBBF100F48420C144498F31B83078F24C6262EF2744BF893B9C5393677E1DE74CC
310
726393EC8EE1ECB17555861949726015D613A0A238709AFF8248D6CCB3C486C6B661BF6DEE996D9614BCC9284D788E93E088AB169D613FAE5C67B4BC1B8EA783F168E40E46574367707B7FBB1C38D7AEBDB85A2CA6F3BBA98166DE264DA34A011949B6A0C55763E67896F8A6125FA1D0C57790260909149A5D1BB644D1A584
310
B7316900EB48D16A0A2965AD2DB83D853FB1AD17280D961A686BE1F467DD7AD3CDDF0002EF63A58C1361E53C67A06B857DE90FB66795AB0DBD508E629C1346718422BA61988182606BA9A00619E12D82141298492D6A7A755EC1B02FFB521797611145C27F8D99F4341FFC91E45C7246FF21ECC07DFD36E009A42D68924F94
310
B0F96B0624A69E2517CBEFDCA1FAB204128511DE81B5809862933B6CE1B510B160B534661FEF37FBB5880FDD97672CCD08CB85E54967567EA73558332D30BE1EA094B836757740E52B40FF0990AF78411E688ED1FD683FD2B2339CF03065316807D96860C31F1B89C7A327CFAA0ECF106AC4CA539882DBFE204C1B6234EEAE
310
413AF39EC1E853E62AE1D6018EC0A61F6822FC1C0C0545292C41BC0F377B63B682600A8B700A47203DFC7A967844F051D28178D3D25057F8EDA128ED306D3F3BE8EA03D80CA341A5AA868CA7F01DFF107CE7CBF5C775C1421C9007E5D84B12D284E6904CBB196A80DE70F96FAB4FD2238FE469EC0AE09E5D2A0247875ED64A
310
2F482A06581179B8548D5C79A0E0EE51841392165CAD7705AA208D52E66F5EFDD2873BEFFA531B417919F8B7B080CE6006D93D603413A01833255E1509CD034E220E2A03DC954AF537387812F0FA0144ACEFE103AC16B336D122CE7C1CA74522C2F7B179B745335D5BFE38CE74684F8793E99516964BF2DA7B7468A89817F7
310
C4383B71C9A2A12D153534E5D28F46102DBB2408A0662A723FCD7040F36E5B6809A13C14C03ECBF2968661C121A877C2D2E2D8749D31B26B7FAB4BCE73AF2EF1698C77C40FB1C8709DF73500AA886B093A91D94529E734215C56284791AB858A6D422028ED5653ED3042CAFD98E4F87BEC4FA6BC96F93112463ED452B9A866
310
2F5B9F665065CF531445E59626BE94FFD5E738CEA2B24ABB8481336CDDD089AB605A5CF10CF6E6E3DCB7B74416DD97A8577141E3DB8BFAF4BBC99F8087E19F0E8FBE8242E90D39F2B2661D73EC4CC5CF0482CAD5D871AFB5222E61A5AFCA450D1215503505AFFE0BA1BBC77E01ADD73D9C44A14FA3A888FD321FE42486120C
310
E705EBE5AF5763FB48F92A2EB41CA27653482328907B074D597BE8EA03A492C5C7A9A059BB0684A209F468BD043992A2D384A52E643F2ADAAECBDA7F3BD5FF1C2FEB7DCA13797D49D9B693D36619A12B305D308870A9325C654792F2CCAB3B5F2C1B97CB388C341115DFCA2E41590823CF540C266407D4D93FF0179C071048
310
D7F273700B1EB125DB434DD120A7C61CC60C2ED5D4749D5AEF7420D889F4D128BC5622A0C6306DC022CE3E8887E82B065543E5C72D55D558E5FA4A243613062B073ECED0FAFC61DDA2022BBD4F7F111891971605B5BA1085DC1952DF56877AB5454149F46D75E678FE58C49B045391198559E06DF6EEBDEC256F2C6814AC3B
310
77B99C4C96CBC1FC7A0CB38BB13B87A7BBC960618FEF9DEBBBE57C7C6D5B8CF0B46001E1D6D0B27D5D3B65C94E1B46095D9F8E02A60A975B3F6DCF6D05FF8F3B8A28DDE053B6F8AB361455B9270AB2962FF66D283A03F5E66DD5BF7314A8BB93D89B2AE77256A00DFC7CDA8260A4F37DFFD24293D6954437CFB58CF8C6C47B
310
B25BF9E939A611D03BF343634757C86FC662983D756429DDDDCAB836BABB9B38AE3D19D80B11C7A6F3D1603A994F06CBC5BDEDDE0EC7CB5B178660AA8F50B9B06F5EF92562A866B636468369304F230A4379B2453B9242070453871EF195C584CBCE060A0095C6F51B811EA79FCB996A8E37913E1D3C62184C472A2317010C
310
45A1EBB831D43AFA0DC6A06212298753E613241E65ED062A18BD31C004720AF9C5DCC0384B0E0F25F5D6B812D486939DE899CA53D5FF8763021DB095835CD59E3EB828C91AD609C3814CBE278068A70B92EF175DB383700E8F9B22AF84392C1CA45120E81702A57030F57B52F0EE21F09C97CB31E59E0624BD26F367EDA0A4
310
3AC831DBC9F17A0DEFF9F28B2526E3ABCF288B8A9D50E7B97CDFA034107546549443280F0C43899961D1872FDE595F580AAF9862744FC108D0EFFBC9D51FD6228DE3342997ACB97A5185D68FF0DA696BE9911F142EB67365C9BA478DF5616EC58989B7FC091640B58C8AD9680971C300AAF0543300AD11A10B38D6D8BF5A22
310
95046A256CBD7415F0C8993E024712EF7284DBD437D40690E00BC05539A7AD1EF48267311882CFFE05504B030414000608080075454C48B57EA9A5E1000000550100003C0000006662782F45334444383844442D413735332D343533412D413745382D4330354631374544413537302F7265736F75726365732F322F636E78
310
2E786D6C4D90DD6A032110855F65117AB9EADA504270CD4BF42A37C1EA642B5167F1A7A46F5F4D2DF46A86733E8633479E1FC14F5F90B2C3B8928572324134685DDC5652CB6D3E92E9AC64422CFF3032451D60255D264A6E09EB3E240B375D7D57BD8BF721F2EB06119233D73D6E64325EE7BC926C3E2168AA6B410BF94EAD
310
2E9A2E3441C69A0CB413C50518274C025DC01225F8F23673312FE29D1F4F87D7D3415C24EBA4921F887EF02E1648B8BF086EB0ADB125E2927540C99ADCA0FA1BCDF88B475B3CC99AAD642EA97530B0F2BD37CC05BD017B22BFAE92AC3FD9C6B381367B21EA07504B030414000608080075454C48FF15A4A45D000000800000
310
003A0000006662782F45334444383844442D413735332D343533412D413745382D4330354631374544413537302F7265736F75726365732F636E782E786D6C4D8B3B0E80201005AF42B6F75B59F0390B113044D83508C6E30BC6C26AF226F3B8BA6360974DA7271430F523308B2B198F9B80925DB700539227A2FCCB80A18E
310
5640D320F996A81C9F32D6E9129A0D1EF74FCE750E6D57BC7165FBCA07504B030414000608080075454C481D032C9D4301000056050000300000006662782F45334444383844442D413735332D343533412D413745382D4330354631374544413537302F636E782E786D6CCD94C14A033110865F650978DC64772D524A3605
310
0F3E8107F196CD4ED7D86CB224B362DFDEA4A6AD22450F057B0B932FF0FF337F86AFDF4753BC810FDAD996D4B4220558E57A6D8796CCB82997A4580BEE9DC32F1829AC1CA125A94C041FBC9BA75CEA61236793AA46DB6D2E4A44AFBB192190421919424B827A81515239A3EB216C692F51D29A7A086EF60AE27BD423E4F7CA
310
8344E88968AAFAAEAC9AB26E1EABE56A71BB5A34CF9C2552F0CE3993796D11BC9B6E9A4AB978B4514EC55902049FBDCE54F240C4491BEDB4E52CDE0B1EA25E3B640E7753E2A6C9682531368A3985806584408E9C7DC282B3E4F89BEF87FBA7938678EAB50785CEEFFEAD0DF5B9361CA5D19888BF75610FFE66DE75AFD1F2FF
310
CDFDACE12CEC62760FC90D31BA3F9310F324ED60AEF1031CA55D3EFF71B1A056D768FAA0EC429ED97E05C6C1A78D283E00504B030414000608080075454C48219C511C7D000000A30000000B0000006662782F636E782E786D6C4D8C410EC2201444AF42FE1EA541020BA02182F7682C6D88140C16E3F105D385AB37799919
310
397EB688DEBEBC424E0A861301E4D33DCF21AD0AEABE600168D4B2E4BCFFD500A569F30ABA062DD792EBF350B35FA61ABB8D213D0EE9A8B542588B0D67145F18352D3981AF84DD06EEAC619CB4C5B94F1A7E7F8DFD5E7F01504B030414000608080075454C48A6D797065F0000008200000007000000636E782E786D6C4DCB
310
3B0E80201045D1AD90E9FD7516806B51190811670C8A61F982B1B0BAC9C97B72CA7B1037C6D3332918DA1E04D2CAC69353902EDB8C20262D23F3F59B81A079470595414B17391D1F19B4730A5583A7ED43BBE4025D9592775E5ADFFA01504B030414000608080075454C48ECFD112DA800000026010000130000005B436F6E
310
74656E745F54797065735D2E786D6C7D4F4B0EC22010BD0A61DF525D18634ABB506FE00510A79458060253536F2FD89D5197F3FED3F68B9BD80362B21E25DFD40D6780DADF2C1AC9671AAA3D677DD75E9E0112CB5A4C928F44E12044D22338956A1F003333F8E814E5331A1194BE2B0362DB343BA13D122055543278D79E60
310
50F344ECBC6478EDCD76CE8EABAE5449AE4298AC56946789C28AAFBEABC53F3EAF09A84A1441B91F0101CD4780756578C173A578FFDDBD00504B030414000608080075454C483DEE336E64000000790000001B0000006175746F6465736B2D64657369676E2D7061636B6167652E786D6C35CBC10E83200C00D05F21DCA56C
310
A76D41FC96062B120735B69A7DBE268BB7777961F8D5AF396893C2ADB70FE7ADA196782C2DF776D7A97B5933C430F15651E5469C55D70F80A4992A3ADC954792C525AE70A1E4D6AD9816CC044FEFDF01FE3FDE907802504B030414000608080075454C480042F014F40000008E0100003D0000006662782F45334444383844
310
442D413735332D343533412D413745382D4330354631374544413537302F7265736F75726365732F322F636F72652E786D6C8550CB6E833010FC15B477830D2E0D91714449FB053DF5661987580936F2A3EAE7D70E546A4F3DED6A76667677D8E96BB9179FCA796D4D0FA4C4502823EDA4CDDC430C177480E2C499B336FCA2
310
4161C4A27AC83070363B1BD71D92D60465326AECA4765078AF0214F29E9A1EBCBCAA45942286C4F0B77215F22666559272E37116A39E76A99E929BBE68E5808F6D731EDFF0136A07F28A281E46D4D1E105D1E7919273D3E1AEC5ACCA62CE825E7EB64BA7445013F01A9316E11A91FA1D1F8EB439D2FA835599C9990F2EFDBC
310
2FCDDF253AAB36F48F5B5CA7FFDDA236A1A977B74DE1819374DC63C05995D349E5115DAA3949FE0D504B030414000608080075454C485B93F0F7F9000000960100003B0000006662782F45334444383844442D413735332D343533412D413745382D4330354631374544413537302F7265736F75726365732F636F72652E78
310
6D6C8550CB6E833010FC15B477830D9486C8384A49FB053DF566990DB112ECC88FAA9F5F3B50A93DF5B4ABD999D9DDE187AFE5567CA2F3DA9A015849A140A3ECA4CD3C400C67B283E220B8B336FCA24161E482036418049F9D8DF70D52D60434193576C20D94DE638042DD52338057175C642963480C7F2DEF525DE58C252B
310
579EE031EA6993EA29B9E9B3460762EC9AD3F8469F487764AFA4A5C791F4EDF185B4CF63CB4E4D4FFB8EF22A8B050F7AF9D9AE1CCA8013889AB28ED09AB0FA9DEEF66DB36FEB0F5E65A6E03EB8F4F3B6347F07C2A1B7D129F4BC5AA77F5CE37DFADF356A139A7A735D151E044B473E06825739A5541E11A69A1315DF504B03
310
0414000608080075454C4888824DEDF1000000B1010000310000006662782F45334444383844442D413735332D343533412D413745382D4330354631374544413537302F636F72652E786D6C8D50CB6EC32010FC156BEFD8E047634598C8AADD2FE8A93704C44589C1E251F5F30BB12BB5B79C7635CC30B3432FDFEBBDF852
310
CE6B6B06202586421961A536CB00315C510FC58551676DF84383C2F0550D9061607471366E0724AC09CA64D458A90E907BAF0214E29E9601BCF8542B2F790C89E16FE5C6C58D2FAA24E5CE6334E8F5572A9CE241496035262F08D788D4EFB83FB7CDB9AD3F6895998CC6A8E561A56572D757AD1CB0B999A6BE9F26349EBA06
310
B55D33A66DEED12BEEDEC8699EC6EE846995C58CFAE0D2CDC727F9BA67E5BBF05FE6B8C927326B139AFA30DC151E1849791E0F8C56B9C0341EEDA699CB663F504B030414000608080075454C487C8B596554010000DD0200000C0000006662782F636F72652E786D6C8D525D6F832014FD2B8677143FE6DA06693ABBFD823D
310
ED8D22B5A40A06C1F4E70FFC88F361DD6282E4DC7BCFB9E7047C7CB44D3070DD0B250B108708045C3255095917C09A2BDC81E048B056CAFC680381A42D2F808701C1B556B69B21A6A4E1D2A352557C0669DF730302D6B84B017A76E32D0DA935AEA3BF871D65775AF3300EA73E82AD15D53C2A2AC726AE826B40CA3C3D971F
310
E805E6A7F81D66E854C27D767A83D96B99C5E7748FF639C2911F26D8887651679A53C32B401214E71025304E3ED1EE90A5872CF9C291EF24B837DA799E45BD3B40AE97078E267CC367BBEA6F3E2BA44993996F9AE80189DD7A6381E0C8E7E37E6378DB0C9DB0CBCFD04BB358B83B68E0CC289DB94AA5EC5A1A6863B9A346C1
310
F8E168AA3AE691E0379EE409CF730E171495B55B8D1A77BD58E3D5B73B755CC3C13C02A9744B9B75B969C5F55C8536969671A61AA5FF33BD585DC28CFCC324DF504B030414000608080075454C484A7F01CD06010000B201000008000000636F72652E786D6C8D50CD6E8420107E15327714D4DA75836CACDB3E414FBD5161
310
2D590523B869DFBEB0D2A4BDF534E49BEF8F61A7CF794237B53A6D4D0B3423809419ACD4666C61F3177C0074E26CB5D6FFA2013262562D4418381B57BB2D091AACF1CA44D458A912289C531ED03085470B6EF850B3C8C4E603C35DB3450C5731AA8C663B8F33AFE71FE9B02AE195045E105A6352605ABC92C3B12A8F55F1C6
310
F2C8E46CDBB44C515A86747DD16A05DED7E5B97F210FB8EEE833AE48D7E3A6EA9E70F5D857F45C36A4A909CBA39833E7D7F0E764127A7AE4C42DE6B27C5F71F66EED9408A19444D64C5FC083435CFC29BD2DF21FA5B5F165910C7785034E43A1FB2204C70B86713F6F98F1DAFC1B504B0102140014000608080075454C4800
310
00000000000000000000003700000000000000000000000000000000006662782F45334444383844442D413735332D343533412D413745382D4330354631374544413537302F617474726962757465732E62696E504B0102140014000608080075454C48000000000000000000000000350000000000000000000000000055
310
0000006662782F45334444383844442D413735332D343533412D413745382D4330354631374544413537302F76657274696365732E62696E504B0102140014000608080075454C48F270F13306000000040000003600000000000000000000000000A80000006662782F45334444383844442D413735332D343533412D4137
310
45382D4330354631374544413537302F747269616E676C65732E62696E504B0102140014000608080075454C4888E57597CD3F0000904100004200000000000000000000000000020100006662782F45334444383844442D413735332D343533412D413745382D4330354631374544413537302F7265736F75726365732F32
310
2F305F67656E657269632E706E67504B0102140014000608080075454C4851464CB4890000004301000036000000000000000000000000002F4100006662782F45334444383844442D413735332D343533412D413745382D4330354631374544413537302F6469726563746F72792E786D6C504B0102140014000608080075
310
454C485C47C5E837070000201C000034000000000000000000000000000C4200006662782F45334444383844442D413735332D343533412D413745382D4330354631374544413537302F6F626A656374732E786D6C504B0102140014000608080075454C48B57EA9A5E1000000550100003C00000000000000000000000000
310
954900006662782F45334444383844442D413735332D343533412D413745382D4330354631374544413537302F7265736F75726365732F322F636E782E786D6C504B0102140014000608080075454C48FF15A4A45D000000800000003A00000000000000000000000000D04A00006662782F45334444383844442D41373533
310
2D343533412D413745382D4330354631374544413537302F7265736F75726365732F636E782E786D6C504B0102140014000608080075454C481D032C9D43010000560500003000000000000000000000000000854B00006662782F45334444383844442D413735332D343533412D413745382D433035463137454441353730
310
2F636E782E786D6C504B0102140014000608080075454C48219C511C7D000000A30000000B00000000000000000000000000164D00006662782F636E782E786D6C504B0102140014000608080075454C48A6D797065F000000820000000700000000000000000000000000BC4D0000636E782E786D6C504B01021400140006
310
08080075454C48ECFD112DA8000000260100001300000000000000000000000000404E00005B436F6E74656E745F54797065735D2E786D6C504B0102140014000608080075454C483DEE336E64000000790000001B00000000000000000000000000194F00006175746F6465736B2D64657369676E2D7061636B6167652E78
310
6D6C504B0102140014000608080075454C480042F014F40000008E0100003D00000000000000000000000000B64F00006662782F45334444383844442D413735332D343533412D413745382D4330354631374544413537302F7265736F75726365732F322F636F72652E786D6C504B0102140014000608080075454C485B93
310
F0F7F9000000960100003B00000000000000000000000000055100006662782F45334444383844442D413735332D343533412D413745382D4330354631374544413537302F7265736F75726365732F636F72652E786D6C504B0102140014000608080075454C4888824DEDF1000000B1010000310000000000000000000000
310
0000575200006662782F45334444383844442D413735332D343533412D413745382D4330354631374544413537302F636F72652E786D6C504B0102140014000608080075454C487C8B596554010000DD0200000C00000000000000000000000000975300006662782F636F72652E786D6C504B010214001400060808007545
310
4C484A7F01CD06010000B2010000080000000000000000000000000015550000636F72652E786D6C504B050600000000120012002D060000415600000000
  0
XRECORD
  5
5FF
102
{ACAD_REACTORS
330
5FA
102
}
330
5FA
100
AcDbXrecord
280
     1
270
     1
271
     1
  0
XRECORD
  5
5FE
102
{ACAD_REACTORS
330
5FA
102
}
330
5FA
100
AcDbXrecord
280
     1
270
     1
271
     1
  0
XRECORD
  5
600
102
{ACAD_REACTORS
330
5FA
102
}
330
5FA
100
AcDbXrecord
280
     1
270
     1
271
     1
  0
XRECORD
  5
5FD
102
{ACAD_REACTORS
330
5FA
102
}
330
5FA
100
AcDbXrecord
280
     1
270
     1
271
     1
  0
XRECORD
  5
1087E
102
{ACAD_REACTORS
330
1087D
102
}
330
1087D
100
AcDbXrecord
280
     1
102
DISPLAYNAME
  1
Imperial24
102
FLAGS
 90
        0
  0
XRECORD
  5
1087A
102
{ACAD_REACTORS
330
10879
102
}
330
10879
100
AcDbXrecord
280
     1
102
DISPLAYNAME
  1
Metric50
102
FLAGS
 90
        0
  0
CELLSTYLEMAP
  5
1083B
102
{ACAD_REACTORS
330
645
102
}
330
645
100
AcDbCellStyleMap
 90
        3
300
CELLSTYLE
  1
TABLEFORMAT_BEGIN
 90
        5
170
     1
 91
        0
 92
    32768
 62
   257
 93
        1
300
CONTENTFORMAT
  1
CONTENTFORMAT_BEGIN
 90
        0
 91
        0
 92
        4
 93
        0
300

 40
0.0
140
1.0
 94
        5
 62
     0
340
11
144
6.0
309
CONTENTFORMAT_END
171
     1
301
MARGIN
  1
CELLMARGIN_BEGIN
 40
1.5
 40
1.5
 40
1.5
 40
1.5
 40
0.18
 40
0.18
309
CELLMARGIN_END
 94
        6
 95
        1
302
GRIDFORMAT
  1
GRIDFORMAT_BEGIN
 90
        0
 91
        1
 62
     0
 92
       -2
340
0
 93
        0
 40
0.045
309
GRIDFORMAT_END
 95
        2
302
GRIDFORMAT
  1
GRIDFORMAT_BEGIN
 90
        0
 91
        1
 62
     0
 92
       -2
340
0
 93
        0
 40
0.045
309
GRIDFORMAT_END
 95
        4
302
GRIDFORMAT
  1
GRIDFORMAT_BEGIN
 90
        0
 91
        1
 62
     0
 92
       -2
340
0
 93
        0
 40
0.045
309
GRIDFORMAT_END
 95
        8
302
GRIDFORMAT
  1
GRIDFORMAT_BEGIN
 90
        0
 91
        1
 62
     0
 92
       -2
340
0
 93
        0
 40
0.045
309
GRIDFORMAT_END
 95
       16
302
GRIDFORMAT
  1
GRIDFORMAT_BEGIN
 90
        0
 91
        1
 62
     0
 92
       -2
340
0
 93
        0
 40
0.045
309
GRIDFORMAT_END
 95
       32
302
GRIDFORMAT
  1
GRIDFORMAT_BEGIN
 90
        0
 91
        1
 62
     0
 92
       -2
340
0
 93
        0
 40
0.045
309
GRIDFORMAT_END
309
TABLEFORMAT_END
  1
CELLSTYLE_BEGIN
 90
        1
 91
        1
300
_TITLE
309
CELLSTYLE_END
300
CELLSTYLE
  1
TABLEFORMAT_BEGIN
 90
        5
170
     1
 91
        0
 92
        0
 62
   257
 93
        1
300
CONTENTFORMAT
  1
CONTENTFORMAT_BEGIN
 90
        0
 91
        0
 92
        4
 93
        0
300

 40
0.0
140
1.0
 94
        5
 62
     0
340
11
144
4.5
309
CONTENTFORMAT_END
171
     1
301
MARGIN
  1
CELLMARGIN_BEGIN
 40
1.5
 40
1.5
 40
1.5
 40
1.5
 40
0.18
 40
0.18
309
CELLMARGIN_END
 94
        6
 95
        1
302
GRIDFORMAT
  1
GRIDFORMAT_BEGIN
 90
        0
 91
        1
 62
     0
 92
       -2
340
0
 93
        0
 40
0.045
309
GRIDFORMAT_END
 95
        2
302
GRIDFORMAT
  1
GRIDFORMAT_BEGIN
 90
        0
 91
        1
 62
     0
 92
       -2
340
0
 93
        0
 40
0.045
309
GRIDFORMAT_END
 95
        4
302
GRIDFORMAT
  1
GRIDFORMAT_BEGIN
 90
        0
 91
        1
 62
     0
 92
       -2
340
0
 93
        0
 40
0.045
309
GRIDFORMAT_END
 95
        8
302
GRIDFORMAT
  1
GRIDFORMAT_BEGIN
 90
        0
 91
        1
 62
     0
 92
       -2
340
0
 93
        0
 40
0.045
309
GRIDFORMAT_END
 95
       16
302
GRIDFORMAT
  1
GRIDFORMAT_BEGIN
 90
        0
 91
        1
 62
     0
 92
       -2
340
0
 93
        0
 40
0.045
309
GRIDFORMAT_END
 95
       32
302
GRIDFORMAT
  1
GRIDFORMAT_BEGIN
 90
        0
 91
        1
 62
     0
 92
       -2
340
0
 93
        0
 40
0.045
309
GRIDFORMAT_END
309
TABLEFORMAT_END
  1
CELLSTYLE_BEGIN
 90
        2
 91
        1
300
_HEADER
309
CELLSTYLE_END
300
CELLSTYLE
  1
TABLEFORMAT_BEGIN
 90
        5
170
     1
 91
        0
 92
        0
 62
   257
 93
        1
300
CONTENTFORMAT
  1
CONTENTFORMAT_BEGIN
 90
        0
 91
        0
 92
        4
 93
        0
300

 40
0.0
140
1.0
 94
        2
 62
     0
340
11
144
4.5
309
CONTENTFORMAT_END
171
     1
301
MARGIN
  1
CELLMARGIN_BEGIN
 40
1.5
 40
1.5
 40
1.5
 40
1.5
 40
0.18
 40
0.18
309
CELLMARGIN_END
 94
        6
 95
        1
302
GRIDFORMAT
  1
GRIDFORMAT_BEGIN
 90
        0
 91
        1
 62
     0
 92
       -2
340
0
 93
        0
 40
0.045
309
GRIDFORMAT_END
 95
        2
302
GRIDFORMAT
  1
GRIDFORMAT_BEGIN
 90
        0
 91
        1
 62
     0
 92
       -2
340
0
 93
        0
 40
0.045
309
GRIDFORMAT_END
 95
        4
302
GRIDFORMAT
  1
GRIDFORMAT_BEGIN
 90
        0
 91
        1
 62
     0
 92
       -2
340
0
 93
        0
 40
0.045
309
GRIDFORMAT_END
 95
        8
302
GRIDFORMAT
  1
GRIDFORMAT_BEGIN
 90
        0
 91
        1
 62
     0
 92
       -2
340
0
 93
        0
 40
0.045
309
GRIDFORMAT_END
 95
       16
302
GRIDFORMAT
  1
GRIDFORMAT_BEGIN
 90
        0
 91
        1
 62
     0
 92
       -2
340
0
 93
        0
 40
0.045
309
GRIDFORMAT_END
 95
       32
302
GRIDFORMAT
  1
GRIDFORMAT_BEGIN
 90
        0
 91
        1
 62
     0
 92
       -2
340
0
 93
        0
 40
0.045
309
GRIDFORMAT_END
309
TABLEFORMAT_END
  1
CELLSTYLE_BEGIN
 90
        3
 91
        2
300
_DATA
309
CELLSTYLE_END
  0
XRECORD
  5
10850
102
{ACAD_REACTORS
330
1084F
102
}
330
1084F
100
AcDbXrecord
280
     1
102
RTVSPost2010Prop28
280
     1
102
RTVSPost2010PropOp28
 70
     1
102
RTVSPost2010Prop29
280
     1
102
RTVSPost2010PropOp29
 70
     1
102
RTVSPost2010Prop30
280
     0
102
RTVSPost2010PropOp30
 70
     1
102
RTVSPost2010Prop31
280
     0
102
RTVSPost2010PropOp31
 70
     1
102
RTVSPost2010Prop32
280
     0
102
RTVSPost2010PropOp32
 70
     1
102
RTVSPost2010Prop33
280
     0
102
RTVSPost2010PropOp33
 70
     1
102
RTVSPost2010Prop34
280
     0
102
RTVSPost2010PropOp34
 70
     1
102
RTVSPost2010Prop35
280
     0
102
RTVSPost2010PropOp35
 70
     1
102
RTVSPost2010Prop36
280
     0
102
RTVSPost2010PropOp36
 70
     1
102
RTVSPost2010Prop37
 90
       50
102
RTVSPost2010PropOp37
 70
     1
102
RTVSPost2010Prop38
140
0.0
102
RTVSPost2010PropOp38
 70
     1
102
RTVSPost2010Prop39
140
1.0
102
RTVSPost2010PropOp39
 70
     1
102
RTVSPost2010Prop40
 90
        0
102
RTVSPost2010PropOp40
 70
     1
102
RTVSPost2010Prop41ColorIndex
 90
       18
102
RTVSPost2010Prop41ColorRGB
 90
        0
102
RTVSPost2010PropOp41
 70
     1
102
RTVSPost2010Prop42
 90
       50
102
RTVSPost2010PropOp42
 70
     1
102
RTVSPost2010Prop43
 90
        3
102
RTVSPost2010PropOp43
 70
     1
102
RTVSPost2010Prop44ColorIndex
 90
        5
102
RTVSPost2010Prop44ColorRGB
 90
      255
102
RTVSPost2010PropOp44
 70
     1
102
RTVSPost2010Prop45
280
     0
102
RTVSPost2010PropOp45
 70
     1
102
RTVSPost2010Prop46
 90
       50
102
RTVSPost2010PropOp46
 70
     1
102
RTVSPost2010Prop47
 90
       50
102
RTVSPost2010PropOp47
 70
     1
102
RTVSPost2010Prop48
 90
       50
102
RTVSPost2010PropOp48
 70
     1
102
RTVSPost2010Prop49
280
     0
102
RTVSPost2010PropOp49
 70
     1
102
RTVSPost2010Prop50
 90
       50
102
RTVSPost2010PropOp50
 70
     1
102
RTVSPost2010Prop51ColorIndex
 90
      256
102
RTVSPost2010Prop51ColorRGB
 90
-16777216
102
RTVSPost2010PropOp51
 70
     0
102
RTVSPost2010Prop52
140
1.0
102
RTVSPost2010PropOp52
 70
     0
102
RTVSPost2010Prop53
 90
        2
102
RTVSPost2010PropOp53
 70
     1
102
RTVSPost2010Prop54
  1
strokes_ogs.tif
102
RTVSPost2010PropOp54
 70
     1
102
RTVSPost2010Prop55
280
     0
102
RTVSPost2010PropOp55
 70
     1
102
RTVSPost2010Prop56
140
1.0
102
RTVSPost2010PropOp56
 70
     1
102
RTVSPost2010Prop57
140
1.0
102
RTVSPost2010PropOp57
 70
     1
  0
XRECORD
  5
10854
102
{ACAD_REACTORS
330
10853
102
}
330
10853
100
AcDbXrecord
280
     1
102
RTVSPost2010Prop28
280
     0
102
RTVSPost2010PropOp28
 70
     1
102
RTVSPost2010Prop29
280
     1
102
RTVSPost2010PropOp29
 70
     1
102
RTVSPost2010Prop30
280
     1
102
RTVSPost2010PropOp30
 70
     1
102
RTVSPost2010Prop31
280
     0
102
RTVSPost2010PropOp31
 70
     1
102
RTVSPost2010Prop32
280
     0
102
RTVSPost2010PropOp32
 70
     1
102
RTVSPost2010Prop33
280
     0
102
RTVSPost2010PropOp33
 70
     1
102
RTVSPost2010Prop34
280
     0
102
RTVSPost2010PropOp34
 70
     1
102
RTVSPost2010Prop35
280
     0
102
RTVSPost2010PropOp35
 70
     1
102
RTVSPost2010Prop36
280
     0
102
RTVSPost2010PropOp36
 70
     1
102
RTVSPost2010Prop37
 90
       50
102
RTVSPost2010PropOp37
 70
     1
102
RTVSPost2010Prop38
140
0.0
102
RTVSPost2010PropOp38
 70
     1
102
RTVSPost2010Prop39
140
1.0
102
RTVSPost2010PropOp39
 70
     1
102
RTVSPost2010Prop40
 90
        0
102
RTVSPost2010PropOp40
 70
     1
102
RTVSPost2010Prop41ColorIndex
 90
       18
102
RTVSPost2010Prop41ColorRGB
 90
        0
102
RTVSPost2010PropOp41
 70
     1
102
RTVSPost2010Prop42
 90
       50
102
RTVSPost2010PropOp42
 70
     1
102
RTVSPost2010Prop43
 90
        3
102
RTVSPost2010PropOp43
 70
     1
102
RTVSPost2010Prop44ColorIndex
 90
        5
102
RTVSPost2010Prop44ColorRGB
 90
      255
102
RTVSPost2010PropOp44
 70
     1
102
RTVSPost2010Prop45
280
     0
102
RTVSPost2010PropOp45
 70
     1
102
RTVSPost2010Prop46
 90
       50
102
RTVSPost2010PropOp46
 70
     1
102
RTVSPost2010Prop47
 90
       50
102
RTVSPost2010PropOp47
 70
     1
102
RTVSPost2010Prop48
 90
       50
102
RTVSPost2010PropOp48
 70
     1
102
RTVSPost2010Prop49
280
     0
102
RTVSPost2010PropOp49
 70
     1
102
RTVSPost2010Prop50
 90
       50
102
RTVSPost2010PropOp50
 70
     1
102
RTVSPost2010Prop51ColorIndex
 90
      256
102
RTVSPost2010Prop51ColorRGB
 90
-16777216
102
RTVSPost2010PropOp51
 70
     0
102
RTVSPost2010Prop52
140
1.0
102
RTVSPost2010PropOp52
 70
     0
102
RTVSPost2010Prop53
 90
        2
102
RTVSPost2010PropOp53
 70
     1
102
RTVSPost2010Prop54
  1
strokes_ogs.tif
102
RTVSPost2010PropOp54
 70
     1
102
RTVSPost2010Prop55
280
     0
102
RTVSPost2010PropOp55
 70
     1
102
RTVSPost2010Prop56
140
1.0
102
RTVSPost2010PropOp56
 70
     1
102
RTVSPost2010Prop57
140
1.0
102
RTVSPost2010PropOp57
 70
     1
  0
XRECORD
  5
10852
102
{ACAD_REACTORS
330
10851
102
}
330
10851
100
AcDbXrecord
280
     1
102
RTVSPost2010Prop28
280
     0
102
RTVSPost2010PropOp28
 70
     1
102
RTVSPost2010Prop29
280
     1
102
RTVSPost2010PropOp29
 70
     1
102
RTVSPost2010Prop30
280
     1
102
RTVSPost2010PropOp30
 70
     1
102
RTVSPost2010Prop31
280
     0
102
RTVSPost2010PropOp31
 70
     1
102
RTVSPost2010Prop32
280
     0
102
RTVSPost2010PropOp32
 70
     1
102
RTVSPost2010Prop33
280
     0
102
RTVSPost2010PropOp33
 70
     1
102
RTVSPost2010Prop34
280
     0
102
RTVSPost2010PropOp34
 70
     1
102
RTVSPost2010Prop35
280
     0
102
RTVSPost2010PropOp35
 70
     1
102
RTVSPost2010Prop36
280
     0
102
RTVSPost2010PropOp36
 70
     1
102
RTVSPost2010Prop37
 90
       50
102
RTVSPost2010PropOp37
 70
     1
102
RTVSPost2010Prop38
140
0.0
102
RTVSPost2010PropOp38
 70
     1
102
RTVSPost2010Prop39
140
1.0
102
RTVSPost2010PropOp39
 70
     1
102
RTVSPost2010Prop40
 90
        0
102
RTVSPost2010PropOp40
 70
     1
102
RTVSPost2010Prop41ColorIndex
 90
       18
102
RTVSPost2010Prop41ColorRGB
 90
        0
102
RTVSPost2010PropOp41
 70
     1
102
RTVSPost2010Prop42
 90
       50
102
RTVSPost2010PropOp42
 70
     1
102
RTVSPost2010Prop43
 90
        3
102
RTVSPost2010PropOp43
 70
     1
102
RTVSPost2010Prop44ColorIndex
 90
        5
102
RTVSPost2010Prop44ColorRGB
 90
      255
102
RTVSPost2010PropOp44
 70
     1
102
RTVSPost2010Prop45
280
     0
102
RTVSPost2010PropOp45
 70
     1
102
RTVSPost2010Prop46
 90
       50
102
RTVSPost2010PropOp46
 70
     1
102
RTVSPost2010Prop47
 90
       50
102
RTVSPost2010PropOp47
 70
     1
102
RTVSPost2010Prop48
 90
       50
102
RTVSPost2010PropOp48
 70
     1
102
RTVSPost2010Prop49
280
     0
102
RTVSPost2010PropOp49
 70
     1
102
RTVSPost2010Prop50
 90
       50
102
RTVSPost2010PropOp50
 70
     1
102
RTVSPost2010Prop51ColorIndex
 90
      256
102
RTVSPost2010Prop51ColorRGB
 90
-16777216
102
RTVSPost2010PropOp51
 70
     0
102
RTVSPost2010Prop52
140
1.0
102
RTVSPost2010PropOp52
 70
     0
102
RTVSPost2010Prop53
 90
        2
102
RTVSPost2010PropOp53
 70
     1
102
RTVSPost2010Prop54
  1
strokes_ogs.tif
102
RTVSPost2010PropOp54
 70
     1
102
RTVSPost2010Prop55
280
     0
102
RTVSPost2010PropOp55
 70
     1
102
RTVSPost2010Prop56
140
1.0
102
RTVSPost2010PropOp56
 70
     1
102
RTVSPost2010Prop57
140
1.0
102
RTVSPost2010PropOp57
 70
     1
  0
XRECORD
  5
1084E
102
{ACAD_REACTORS
330
1084D
102
}
330
1084D
100
AcDbXrecord
280
     1
102
RTVSPost2010Prop28
280
     0
102
RTVSPost2010PropOp28
 70
     1
102
RTVSPost2010Prop29
280
     1
102
RTVSPost2010PropOp29
 70
     1
102
RTVSPost2010Prop30
280
     1
102
RTVSPost2010PropOp30
 70
     1
102
RTVSPost2010Prop31
280
     0
102
RTVSPost2010PropOp31
 70
     1
102
RTVSPost2010Prop32
280
     0
102
RTVSPost2010PropOp32
 70
     1
102
RTVSPost2010Prop33
280
     0
102
RTVSPost2010PropOp33
 70
     1
102
RTVSPost2010Prop34
280
     0
102
RTVSPost2010PropOp34
 70
     1
102
RTVSPost2010Prop35
280
     0
102
RTVSPost2010PropOp35
 70
     1
102
RTVSPost2010Prop36
280
     0
102
RTVSPost2010PropOp36
 70
     1
102
RTVSPost2010Prop37
 90
       50
102
RTVSPost2010PropOp37
 70
     1
102
RTVSPost2010Prop38
140
0.0
102
RTVSPost2010PropOp38
 70
     1
102
RTVSPost2010Prop39
140
1.0
102
RTVSPost2010PropOp39
 70
     1
102
RTVSPost2010Prop40
 90
        0
102
RTVSPost2010PropOp40
 70
     1
102
RTVSPost2010Prop41ColorIndex
 90
       18
102
RTVSPost2010Prop41ColorRGB
 90
        0
102
RTVSPost2010PropOp41
 70
     1
102
RTVSPost2010Prop42
 90
       50
102
RTVSPost2010PropOp42
 70
     1
102
RTVSPost2010Prop43
 90
        3
102
RTVSPost2010PropOp43
 70
     1
102
RTVSPost2010Prop44ColorIndex
 90
        5
102
RTVSPost2010Prop44ColorRGB
 90
      255
102
RTVSPost2010PropOp44
 70
     1
102
RTVSPost2010Prop45
280
     0
102
RTVSPost2010PropOp45
 70
     1
102
RTVSPost2010Prop46
 90
       50
102
RTVSPost2010PropOp46
 70
     1
102
RTVSPost2010Prop47
 90
       50
102
RTVSPost2010PropOp47
 70
     1
102
RTVSPost2010Prop48
 90
       50
102
RTVSPost2010PropOp48
 70
     1
102
RTVSPost2010Prop49
280
     0
102
RTVSPost2010PropOp49
 70
     1
102
RTVSPost2010Prop50
 90
       50
102
RTVSPost2010PropOp50
 70
     1
102
RTVSPost2010Prop51ColorIndex
 90
      256
102
RTVSPost2010Prop51ColorRGB
 90
-16777216
102
RTVSPost2010PropOp51
 70
     0
102
RTVSPost2010Prop52
140
1.0
102
RTVSPost2010PropOp52
 70
     0
102
RTVSPost2010Prop53
 90
        2
102
RTVSPost2010PropOp53
 70
     1
102
RTVSPost2010Prop54
  1
strokes_ogs.tif
102
RTVSPost2010PropOp54
 70
     1
102
RTVSPost2010Prop55
280
     0
102
RTVSPost2010PropOp55
 70
     1
102
RTVSPost2010Prop56
140
1.0
102
RTVSPost2010PropOp56
 70
     1
102
RTVSPost2010Prop57
140
1.0
102
RTVSPost2010PropOp57
 70
     1
  0
XRECORD
  5
1085C
102
{ACAD_REACTORS
330
1085B
102
}
330
1085B
100
AcDbXrecord
280
     1
102
RTVSPost2010Prop28
280
     0
102
RTVSPost2010PropOp28
 70
     1
102
RTVSPost2010Prop29
280
     1
102
RTVSPost2010PropOp29
 70
     1
102
RTVSPost2010Prop30
280
     1
102
RTVSPost2010PropOp30
 70
     1
102
RTVSPost2010Prop31
280
     0
102
RTVSPost2010PropOp31
 70
     1
102
RTVSPost2010Prop32
280
     0
102
RTVSPost2010PropOp32
 70
     1
102
RTVSPost2010Prop33
280
     0
102
RTVSPost2010PropOp33
 70
     1
102
RTVSPost2010Prop34
280
     0
102
RTVSPost2010PropOp34
 70
     1
102
RTVSPost2010Prop35
280
     0
102
RTVSPost2010PropOp35
 70
     1
102
RTVSPost2010Prop36
280
     0
102
RTVSPost2010PropOp36
 70
     1
102
RTVSPost2010Prop37
 90
       50
102
RTVSPost2010PropOp37
 70
     1
102
RTVSPost2010Prop38
140
0.0
102
RTVSPost2010PropOp38
 70
     1
102
RTVSPost2010Prop39
140
1.0
102
RTVSPost2010PropOp39
 70
     1
102
RTVSPost2010Prop40
 90
        0
102
RTVSPost2010PropOp40
 70
     1
102
RTVSPost2010Prop41ColorIndex
 90
       18
102
RTVSPost2010Prop41ColorRGB
 90
        0
102
RTVSPost2010PropOp41
 70
     1
102
RTVSPost2010Prop42
 90
       50
102
RTVSPost2010PropOp42
 70
     1
102
RTVSPost2010Prop43
 90
        3
102
RTVSPost2010PropOp43
 70
     1
102
RTVSPost2010Prop44ColorIndex
 90
        5
102
RTVSPost2010Prop44ColorRGB
 90
      255
102
RTVSPost2010PropOp44
 70
     1
102
RTVSPost2010Prop45
280
     0
102
RTVSPost2010PropOp45
 70
     1
102
RTVSPost2010Prop46
 90
       50
102
RTVSPost2010PropOp46
 70
     1
102
RTVSPost2010Prop47
 90
       50
102
RTVSPost2010PropOp47
 70
     1
102
RTVSPost2010Prop48
 90
       50
102
RTVSPost2010PropOp48
 70
     1
102
RTVSPost2010Prop49
280
     0
102
RTVSPost2010PropOp49
 70
     1
102
RTVSPost2010Prop50
 90
       50
102
RTVSPost2010PropOp50
 70
     1
102
RTVSPost2010Prop51ColorIndex
 90
      256
102
RTVSPost2010Prop51ColorRGB
 90
-16777216
102
RTVSPost2010PropOp51
 70
     0
102
RTVSPost2010Prop52
140
1.0
102
RTVSPost2010PropOp52
 70
     0
102
RTVSPost2010Prop53
 90
        2
102
RTVSPost2010PropOp53
 70
     1
102
RTVSPost2010Prop54
  1
strokes_ogs.tif
102
RTVSPost2010PropOp54
 70
     1
102
RTVSPost2010Prop55
280
     0
102
RTVSPost2010PropOp55
 70
     1
102
RTVSPost2010Prop56
140
1.0
102
RTVSPost2010PropOp56
 70
     1
102
RTVSPost2010Prop57
140
1.0
102
RTVSPost2010PropOp57
 70
     1
  0
XRECORD
  5
10864
102
{ACAD_REACTORS
330
10863
102
}
330
10863
100
AcDbXrecord
280
     1
102
RTVSPost2010Prop28
280
     0
102
RTVSPost2010PropOp28
 70
     1
102
RTVSPost2010Prop29
280
     1
102
RTVSPost2010PropOp29
 70
     1
102
RTVSPost2010Prop30
280
     1
102
RTVSPost2010PropOp30
 70
     1
102
RTVSPost2010Prop31
280
     0
102
RTVSPost2010PropOp31
 70
     1
102
RTVSPost2010Prop32
280
     0
102
RTVSPost2010PropOp32
 70
     1
102
RTVSPost2010Prop33
280
     0
102
RTVSPost2010PropOp33
 70
     1
102
RTVSPost2010Prop34
280
     0
102
RTVSPost2010PropOp34
 70
     1
102
RTVSPost2010Prop35
280
     0
102
RTVSPost2010PropOp35
 70
     1
102
RTVSPost2010Prop36
280
     0
102
RTVSPost2010PropOp36
 70
     1
102
RTVSPost2010Prop37
 90
       50
102
RTVSPost2010PropOp37
 70
     1
102
RTVSPost2010Prop38
140
0.0
102
RTVSPost2010PropOp38
 70
     1
102
RTVSPost2010Prop39
140
1.0
102
RTVSPost2010PropOp39
 70
     1
102
RTVSPost2010Prop40
 90
        0
102
RTVSPost2010PropOp40
 70
     1
102
RTVSPost2010Prop41ColorIndex
 90
       18
102
RTVSPost2010Prop41ColorRGB
 90
        0
102
RTVSPost2010PropOp41
 70
     1
102
RTVSPost2010Prop42
 90
       50
102
RTVSPost2010PropOp42
 70
     1
102
RTVSPost2010Prop43
 90
        3
102
RTVSPost2010PropOp43
 70
     1
102
RTVSPost2010Prop44ColorIndex
 90
        5
102
RTVSPost2010Prop44ColorRGB
 90
      255
102
RTVSPost2010PropOp44
 70
     1
102
RTVSPost2010Prop45
280
     0
102
RTVSPost2010PropOp45
 70
     1
102
RTVSPost2010Prop46
 90
       50
102
RTVSPost2010PropOp46
 70
     1
102
RTVSPost2010Prop47
 90
       50
102
RTVSPost2010PropOp47
 70
     1
102
RTVSPost2010Prop48
 90
       50
102
RTVSPost2010PropOp48
 70
     1
102
RTVSPost2010Prop49
280
     0
102
RTVSPost2010PropOp49
 70
     1
102
RTVSPost2010Prop50
 90
       50
102
RTVSPost2010PropOp50
 70
     1
102
RTVSPost2010Prop51ColorIndex
 90
      256
102
RTVSPost2010Prop51ColorRGB
 90
-16777216
102
RTVSPost2010PropOp51
 70
     0
102
RTVSPost2010Prop52
140
1.0
102
RTVSPost2010PropOp52
 70
     0
102
RTVSPost2010Prop53
 90
        2
102
RTVSPost2010PropOp53
 70
     1
102
RTVSPost2010Prop54
  1
strokes_ogs.tif
102
RTVSPost2010PropOp54
 70
     1
102
RTVSPost2010Prop55
280
     0
102
RTVSPost2010PropOp55
 70
     1
102
RTVSPost2010Prop56
140
1.0
102
RTVSPost2010PropOp56
 70
     1
102
RTVSPost2010Prop57
140
1.0
102
RTVSPost2010PropOp57
 70
     1
  0
XRECORD
  5
10856
102
{ACAD_REACTORS
330
10855
102
}
330
10855
100
AcDbXrecord
280
     1
102
RTVSPost2010Prop28
280
     0
102
RTVSPost2010PropOp28
 70
     1
102
RTVSPost2010Prop29
280
     1
102
RTVSPost2010PropOp29
 70
     1
102
RTVSPost2010Prop30
280
     1
102
RTVSPost2010PropOp30
 70
     1
102
RTVSPost2010Prop31
280
     0
102
RTVSPost2010PropOp31
 70
     1
102
RTVSPost2010Prop32
280
     0
102
RTVSPost2010PropOp32
 70
     1
102
RTVSPost2010Prop33
280
     0
102
RTVSPost2010PropOp33
 70
     1
102
RTVSPost2010Prop34
280
     0
102
RTVSPost2010PropOp34
 70
     1
102
RTVSPost2010Prop35
280
     0
102
RTVSPost2010PropOp35
 70
     1
102
RTVSPost2010Prop36
280
     0
102
RTVSPost2010PropOp36
 70
     1
102
RTVSPost2010Prop37
 90
       50
102
RTVSPost2010PropOp37
 70
     1
102
RTVSPost2010Prop38
140
0.0
102
RTVSPost2010PropOp38
 70
     1
102
RTVSPost2010Prop39
140
1.0
102
RTVSPost2010PropOp39
 70
     1
102
RTVSPost2010Prop40
 90
        0
102
RTVSPost2010PropOp40
 70
     1
102
RTVSPost2010Prop41ColorIndex
 90
       18
102
RTVSPost2010Prop41ColorRGB
 90
        0
102
RTVSPost2010PropOp41
 70
     1
102
RTVSPost2010Prop42
 90
       50
102
RTVSPost2010PropOp42
 70
     1
102
RTVSPost2010Prop43
 90
        3
102
RTVSPost2010PropOp43
 70
     1
102
RTVSPost2010Prop44ColorIndex
 90
        5
102
RTVSPost2010Prop44ColorRGB
 90
      255
102
RTVSPost2010PropOp44
 70
     1
102
RTVSPost2010Prop45
280
     0
102
RTVSPost2010PropOp45
 70
     1
102
RTVSPost2010Prop46
 90
       50
102
RTVSPost2010PropOp46
 70
     1
102
RTVSPost2010Prop47
 90
       50
102
RTVSPost2010PropOp47
 70
     1
102
RTVSPost2010Prop48
 90
       50
102
RTVSPost2010PropOp48
 70
     1
102
RTVSPost2010Prop49
280
     0
102
RTVSPost2010PropOp49
 70
     1
102
RTVSPost2010Prop50
 90
       50
102
RTVSPost2010PropOp50
 70
     1
102
RTVSPost2010Prop51ColorIndex
 90
      256
102
RTVSPost2010Prop51ColorRGB
 90
-16777216
102
RTVSPost2010PropOp51
 70
     0
102
RTVSPost2010Prop52
140
1.0
102
RTVSPost2010PropOp52
 70
     0
102
RTVSPost2010Prop53
 90
        2
102
RTVSPost2010PropOp53
 70
     1
102
RTVSPost2010Prop54
  1
strokes_ogs.tif
102
RTVSPost2010PropOp54
 70
     1
102
RTVSPost2010Prop55
280
     0
102
RTVSPost2010PropOp55
 70
     1
102
RTVSPost2010Prop56
140
1.0
102
RTVSPost2010PropOp56
 70
     1
102
RTVSPost2010Prop57
140
1.0
102
RTVSPost2010PropOp57
 70
     1
  0
XRECORD
  5
1085A
102
{ACAD_REACTORS
330
10859
102
}
330
10859
100
AcDbXrecord
280
     1
102
RTVSPost2010Prop28
280
     0
102
RTVSPost2010PropOp28
 70
     1
102
RTVSPost2010Prop29
280
     1
102
RTVSPost2010PropOp29
 70
     1
102
RTVSPost2010Prop30
280
     1
102
RTVSPost2010PropOp30
 70
     1
102
RTVSPost2010Prop31
280
     0
102
RTVSPost2010PropOp31
 70
     1
102
RTVSPost2010Prop32
280
     0
102
RTVSPost2010PropOp32
 70
     1
102
RTVSPost2010Prop33
280
     0
102
RTVSPost2010PropOp33
 70
     1
102
RTVSPost2010Prop34
280
     0
102
RTVSPost2010PropOp34
 70
     1
102
RTVSPost2010Prop35
280
     0
102
RTVSPost2010PropOp35
 70
     1
102
RTVSPost2010Prop36
280
     0
102
RTVSPost2010PropOp36
 70
     1
102
RTVSPost2010Prop37
 90
       50
102
RTVSPost2010PropOp37
 70
     1
102
RTVSPost2010Prop38
140
0.0
102
RTVSPost2010PropOp38
 70
     1
102
RTVSPost2010Prop39
140
1.0
102
RTVSPost2010PropOp39
 70
     1
102
RTVSPost2010Prop40
 90
        0
102
RTVSPost2010PropOp40
 70
     1
102
RTVSPost2010Prop41ColorIndex
 90
       18
102
RTVSPost2010Prop41ColorRGB
 90
        0
102
RTVSPost2010PropOp41
 70
     1
102
RTVSPost2010Prop42
 90
       50
102
RTVSPost2010PropOp42
 70
     1
102
RTVSPost2010Prop43
 90
        3
102
RTVSPost2010PropOp43
 70
     1
102
RTVSPost2010Prop44ColorIndex
 90
        5
102
RTVSPost2010Prop44ColorRGB
 90
      255
102
RTVSPost2010PropOp44
 70
     1
102
RTVSPost2010Prop45
280
     0
102
RTVSPost2010PropOp45
 70
     1
102
RTVSPost2010Prop46
 90
       50
102
RTVSPost2010PropOp46
 70
     1
102
RTVSPost2010Prop47
 90
       50
102
RTVSPost2010PropOp47
 70
     1
102
RTVSPost2010Prop48
 90
       50
102
RTVSPost2010PropOp48
 70
     1
102
RTVSPost2010Prop49
280
     0
102
RTVSPost2010PropOp49
 70
     1
102
RTVSPost2010Prop50
 90
       50
102
RTVSPost2010PropOp50
 70
     1
102
RTVSPost2010Prop51ColorIndex
 90
      256
102
RTVSPost2010Prop51ColorRGB
 90
-16777216
102
RTVSPost2010PropOp51
 70
     0
102
RTVSPost2010Prop52
140
1.0
102
RTVSPost2010PropOp52
 70
     0
102
RTVSPost2010Prop53
 90
        2
102
RTVSPost2010PropOp53
 70
     1
102
RTVSPost2010Prop54
  1
strokes_ogs.tif
102
RTVSPost2010PropOp54
 70
     1
102
RTVSPost2010Prop55
280
     0
102
RTVSPost2010PropOp55
 70
     1
102
RTVSPost2010Prop56
140
1.0
102
RTVSPost2010PropOp56
 70
     1
102
RTVSPost2010Prop57
140
1.0
102
RTVSPost2010PropOp57
 70
     1
  0
XRECORD
  5
1086A
102
{ACAD_REACTORS
330
10869
102
}
330
10869
100
AcDbXrecord
280
     1
102
RTVSPost2010Prop28
280
     0
102
RTVSPost2010PropOp28
 70
     1
102
RTVSPost2010Prop29
280
     1
102
RTVSPost2010PropOp29
 70
     1
102
RTVSPost2010Prop30
280
     1
102
RTVSPost2010PropOp30
 70
     1
102
RTVSPost2010Prop31
280
     0
102
RTVSPost2010PropOp31
 70
     1
102
RTVSPost2010Prop32
280
     0
102
RTVSPost2010PropOp32
 70
     1
102
RTVSPost2010Prop33
280
     0
102
RTVSPost2010PropOp33
 70
     1
102
RTVSPost2010Prop34
280
     0
102
RTVSPost2010PropOp34
 70
     1
102
RTVSPost2010Prop35
280
     0
102
RTVSPost2010PropOp35
 70
     1
102
RTVSPost2010Prop36
280
     0
102
RTVSPost2010PropOp36
 70
     1
102
RTVSPost2010Prop37
 90
       50
102
RTVSPost2010PropOp37
 70
     1
102
RTVSPost2010Prop38
140
0.0
102
RTVSPost2010PropOp38
 70
     1
102
RTVSPost2010Prop39
140
1.0
102
RTVSPost2010PropOp39
 70
     1
102
RTVSPost2010Prop40
 90
        0
102
RTVSPost2010PropOp40
 70
     1
102
RTVSPost2010Prop41ColorIndex
 90
       18
102
RTVSPost2010Prop41ColorRGB
 90
        0
102
RTVSPost2010PropOp41
 70
     1
102
RTVSPost2010Prop42
 90
       50
102
RTVSPost2010PropOp42
 70
     1
102
RTVSPost2010Prop43
 90
        3
102
RTVSPost2010PropOp43
 70
     1
102
RTVSPost2010Prop44ColorIndex
 90
        5
102
RTVSPost2010Prop44ColorRGB
 90
      255
102
RTVSPost2010PropOp44
 70
     1
102
RTVSPost2010Prop45
280
     0
102
RTVSPost2010PropOp45
 70
     1
102
RTVSPost2010Prop46
 90
       50
102
RTVSPost2010PropOp46
 70
     1
102
RTVSPost2010Prop47
 90
       50
102
RTVSPost2010PropOp47
 70
     1
102
RTVSPost2010Prop48
 90
       50
102
RTVSPost2010PropOp48
 70
     1
102
RTVSPost2010Prop49
280
     0
102
RTVSPost2010PropOp49
 70
     1
102
RTVSPost2010Prop50
 90
       50
102
RTVSPost2010PropOp50
 70
     1
102
RTVSPost2010Prop51ColorIndex
 90
      256
102
RTVSPost2010Prop51ColorRGB
 90
-16777216
102
RTVSPost2010PropOp51
 70
     0
102
RTVSPost2010Prop52
140
1.0
102
RTVSPost2010PropOp52
 70
     0
102
RTVSPost2010Prop53
 90
        2
102
RTVSPost2010PropOp53
 70
     1
102
RTVSPost2010Prop54
  1
strokes_ogs.tif
102
RTVSPost2010PropOp54
 70
     1
102
RTVSPost2010Prop55
280
     0
102
RTVSPost2010PropOp55
 70
     1
102
RTVSPost2010Prop56
140
1.0
102
RTVSPost2010PropOp56
 70
     1
102
RTVSPost2010Prop57
140
1.0
102
RTVSPost2010PropOp57
 70
     1
  0
XRECORD
  5
10862
102
{ACAD_REACTORS
330
10861
102
}
330
10861
100
AcDbXrecord
280
     1
102
RTVSPost2010Prop28
280
     0
102
RTVSPost2010PropOp28
 70
     1
102
RTVSPost2010Prop29
280
     1
102
RTVSPost2010PropOp29
 70
     1
102
RTVSPost2010Prop30
280
     1
102
RTVSPost2010PropOp30
 70
     1
102
RTVSPost2010Prop31
280
     0
102
RTVSPost2010PropOp31
 70
     1
102
RTVSPost2010Prop32
280
     0
102
RTVSPost2010PropOp32
 70
     1
102
RTVSPost2010Prop33
280
     0
102
RTVSPost2010PropOp33
 70
     1
102
RTVSPost2010Prop34
280
     0
102
RTVSPost2010PropOp34
 70
     1
102
RTVSPost2010Prop35
280
     0
102
RTVSPost2010PropOp35
 70
     1
102
RTVSPost2010Prop36
280
     0
102
RTVSPost2010PropOp36
 70
     1
102
RTVSPost2010Prop37
 90
       50
102
RTVSPost2010PropOp37
 70
     1
102
RTVSPost2010Prop38
140
0.0
102
RTVSPost2010PropOp38
 70
     1
102
RTVSPost2010Prop39
140
1.0
102
RTVSPost2010PropOp39
 70
     1
102
RTVSPost2010Prop40
 90
        0
102
RTVSPost2010PropOp40
 70
     1
102
RTVSPost2010Prop41ColorIndex
 90
       18
102
RTVSPost2010Prop41ColorRGB
 90
        0
102
RTVSPost2010PropOp41
 70
     1
102
RTVSPost2010Prop42
 90
       50
102
RTVSPost2010PropOp42
 70
     1
102
RTVSPost2010Prop43
 90
        3
102
RTVSPost2010PropOp43
 70
     1
102
RTVSPost2010Prop44ColorIndex
 90
        5
102
RTVSPost2010Prop44ColorRGB
 90
      255
102
RTVSPost2010PropOp44
 70
     1
102
RTVSPost2010Prop45
280
     0
102
RTVSPost2010PropOp45
 70
     1
102
RTVSPost2010Prop46
 90
       50
102
RTVSPost2010PropOp46
 70
     1
102
RTVSPost2010Prop47
 90
       50
102
RTVSPost2010PropOp47
 70
     1
102
RTVSPost2010Prop48
 90
       50
102
RTVSPost2010PropOp48
 70
     1
102
RTVSPost2010Prop49
280
     0
102
RTVSPost2010PropOp49
 70
     1
102
RTVSPost2010Prop50
 90
       50
102
RTVSPost2010PropOp50
 70
     1
102
RTVSPost2010Prop51ColorIndex
 90
      256
102
RTVSPost2010Prop51ColorRGB
 90
-16777216
102
RTVSPost2010PropOp51
 70
     0
102
RTVSPost2010Prop52
140
1.0
102
RTVSPost2010PropOp52
 70
     0
102
RTVSPost2010Prop53
 90
        2
102
RTVSPost2010PropOp53
 70
     1
102
RTVSPost2010Prop54
  1
strokes_ogs.tif
102
RTVSPost2010PropOp54
 70
     1
102
RTVSPost2010Prop55
280
     0
102
RTVSPost2010PropOp55
 70
     1
102
RTVSPost2010Prop56
140
1.0
102
RTVSPost2010PropOp56
 70
     1
102
RTVSPost2010Prop57
140
1.0
102
RTVSPost2010PropOp57
 70
     1
  0
XRECORD
  5
10846
102
{ACAD_REACTORS
330
10845
102
}
330
10845
100
AcDbXrecord
280
     1
102
RTVSPost2010Prop28
280
     0
102
RTVSPost2010PropOp28
 70
     1
102
RTVSPost2010Prop29
280
     1
102
RTVSPost2010PropOp29
 70
     1
102
RTVSPost2010Prop30
280
     1
102
RTVSPost2010PropOp30
 70
     1
102
RTVSPost2010Prop31
280
     0
102
RTVSPost2010PropOp31
 70
     1
102
RTVSPost2010Prop32
280
     0
102
RTVSPost2010PropOp32
 70
     1
102
RTVSPost2010Prop33
280
     0
102
RTVSPost2010PropOp33
 70
     1
102
RTVSPost2010Prop34
280
     0
102
RTVSPost2010PropOp34
 70
     1
102
RTVSPost2010Prop35
280
     0
102
RTVSPost2010PropOp35
 70
     1
102
RTVSPost2010Prop36
280
     0
102
RTVSPost2010PropOp36
 70
     1
102
RTVSPost2010Prop37
 90
       50
102
RTVSPost2010PropOp37
 70
     1
102
RTVSPost2010Prop38
140
0.0
102
RTVSPost2010PropOp38
 70
     1
102
RTVSPost2010Prop39
140
1.0
102
RTVSPost2010PropOp39
 70
     1
102
RTVSPost2010Prop40
 90
        0
102
RTVSPost2010PropOp40
 70
     1
102
RTVSPost2010Prop41ColorIndex
 90
       18
102
RTVSPost2010Prop41ColorRGB
 90
        0
102
RTVSPost2010PropOp41
 70
     1
102
RTVSPost2010Prop42
 90
       50
102
RTVSPost2010PropOp42
 70
     1
102
RTVSPost2010Prop43
 90
        3
102
RTVSPost2010PropOp43
 70
     1
102
RTVSPost2010Prop44ColorIndex
 90
        5
102
RTVSPost2010Prop44ColorRGB
 90
      255
102
RTVSPost2010PropOp44
 70
     1
102
RTVSPost2010Prop45
280
     0
102
RTVSPost2010PropOp45
 70
     1
102
RTVSPost2010Prop46
 90
       50
102
RTVSPost2010PropOp46
 70
     1
102
RTVSPost2010Prop47
 90
       50
102
RTVSPost2010PropOp47
 70
     1
102
RTVSPost2010Prop48
 90
       50
102
RTVSPost2010PropOp48
 70
     1
102
RTVSPost2010Prop49
280
     0
102
RTVSPost2010PropOp49
 70
     1
102
RTVSPost2010Prop50
 90
       50
102
RTVSPost2010PropOp50
 70
     1
102
RTVSPost2010Prop51ColorIndex
 90
      256
102
RTVSPost2010Prop51ColorRGB
 90
-16777216
102
RTVSPost2010PropOp51
 70
     0
102
RTVSPost2010Prop52
140
1.0
102
RTVSPost2010PropOp52
 70
     0
102
RTVSPost2010Prop53
 90
        2
102
RTVSPost2010PropOp53
 70
     1
102
RTVSPost2010Prop54
  1
strokes_ogs.tif
102
RTVSPost2010PropOp54
 70
     1
102
RTVSPost2010Prop55
280
     0
102
RTVSPost2010PropOp55
 70
     1
102
RTVSPost2010Prop56
140
1.0
102
RTVSPost2010PropOp56
 70
     1
102
RTVSPost2010Prop57
140
1.0
102
RTVSPost2010PropOp57
 70
     1
  0
XRECORD
  5
10848
102
{ACAD_REACTORS
330
10847
102
}
330
10847
100
AcDbXrecord
280
     1
102
RTVSPost2010Prop28
280
     0
102
RTVSPost2010PropOp28
 70
     1
102
RTVSPost2010Prop29
280
     1
102
RTVSPost2010PropOp29
 70
     1
102
RTVSPost2010Prop30
280
     1
102
RTVSPost2010PropOp30
 70
     1
102
RTVSPost2010Prop31
280
     0
102
RTVSPost2010PropOp31
 70
     1
102
RTVSPost2010Prop32
280
     0
102
RTVSPost2010PropOp32
 70
     1
102
RTVSPost2010Prop33
280
     0
102
RTVSPost2010PropOp33
 70
     1
102
RTVSPost2010Prop34
280
     0
102
RTVSPost2010PropOp34
 70
     1
102
RTVSPost2010Prop35
280
     0
102
RTVSPost2010PropOp35
 70
     1
102
RTVSPost2010Prop36
280
     0
102
RTVSPost2010PropOp36
 70
     1
102
RTVSPost2010Prop37
 90
       50
102
RTVSPost2010PropOp37
 70
     1
102
RTVSPost2010Prop38
140
0.0
102
RTVSPost2010PropOp38
 70
     1
102
RTVSPost2010Prop39
140
1.0
102
RTVSPost2010PropOp39
 70
     1
102
RTVSPost2010Prop40
 90
        0
102
RTVSPost2010PropOp40
 70
     1
102
RTVSPost2010Prop41ColorIndex
 90
       18
102
RTVSPost2010Prop41ColorRGB
 90
        0
102
RTVSPost2010PropOp41
 70
     1
102
RTVSPost2010Prop42
 90
       50
102
RTVSPost2010PropOp42
 70
     1
102
RTVSPost2010Prop43
 90
        3
102
RTVSPost2010PropOp43
 70
     1
102
RTVSPost2010Prop44ColorIndex
 90
        5
102
RTVSPost2010Prop44ColorRGB
 90
      255
102
RTVSPost2010PropOp44
 70
     1
102
RTVSPost2010Prop45
280
     0
102
RTVSPost2010PropOp45
 70
     1
102
RTVSPost2010Prop46
 90
       50
102
RTVSPost2010PropOp46
 70
     1
102
RTVSPost2010Prop47
 90
       50
102
RTVSPost2010PropOp47
 70
     1
102
RTVSPost2010Prop48
 90
       50
102
RTVSPost2010PropOp48
 70
     1
102
RTVSPost2010Prop49
280
     0
102
RTVSPost2010PropOp49
 70
     1
102
RTVSPost2010Prop50
 90
       50
102
RTVSPost2010PropOp50
 70
     1
102
RTVSPost2010Prop51ColorIndex
 90
      256
102
RTVSPost2010Prop51ColorRGB
 90
-16777216
102
RTVSPost2010PropOp51
 70
     0
102
RTVSPost2010Prop52
140
1.0
102
RTVSPost2010PropOp52
 70
     0
102
RTVSPost2010Prop53
 90
        2
102
RTVSPost2010PropOp53
 70
     1
102
RTVSPost2010Prop54
  1
strokes_ogs.tif
102
RTVSPost2010PropOp54
 70
     1
102
RTVSPost2010Prop55
280
     0
102
RTVSPost2010PropOp55
 70
     1
102
RTVSPost2010Prop56
140
1.0
102
RTVSPost2010PropOp56
 70
     1
102
RTVSPost2010Prop57
140
1.0
102
RTVSPost2010PropOp57
 70
     1
  0
XRECORD
  5
1084A
102
{ACAD_REACTORS
330
10849
102
}
330
10849
100
AcDbXrecord
280
     1
102
RTVSPost2010Prop28
280
     0
102
RTVSPost2010PropOp28
 70
     1
102
RTVSPost2010Prop29
280
     1
102
RTVSPost2010PropOp29
 70
     1
102
RTVSPost2010Prop30
280
     1
102
RTVSPost2010PropOp30
 70
     1
102
RTVSPost2010Prop31
280
     0
102
RTVSPost2010PropOp31
 70
     1
102
RTVSPost2010Prop32
280
     0
102
RTVSPost2010PropOp32
 70
     1
102
RTVSPost2010Prop33
280
     0
102
RTVSPost2010PropOp33
 70
     1
102
RTVSPost2010Prop34
280
     0
102
RTVSPost2010PropOp34
 70
     1
102
RTVSPost2010Prop35
280
     0
102
RTVSPost2010PropOp35
 70
     1
102
RTVSPost2010Prop36
280
     0
102
RTVSPost2010PropOp36
 70
     1
102
RTVSPost2010Prop37
 90
       50
102
RTVSPost2010PropOp37
 70
     1
102
RTVSPost2010Prop38
140
0.0
102
RTVSPost2010PropOp38
 70
     1
102
RTVSPost2010Prop39
140
1.0
102
RTVSPost2010PropOp39
 70
     1
102
RTVSPost2010Prop40
 90
        0
102
RTVSPost2010PropOp40
 70
     1
102
RTVSPost2010Prop41ColorIndex
 90
       18
102
RTVSPost2010Prop41ColorRGB
 90
        0
102
RTVSPost2010PropOp41
 70
     1
102
RTVSPost2010Prop42
 90
       50
102
RTVSPost2010PropOp42
 70
     1
102
RTVSPost2010Prop43
 90
        3
102
RTVSPost2010PropOp43
 70
     1
102
RTVSPost2010Prop44ColorIndex
 90
        5
102
RTVSPost2010Prop44ColorRGB
 90
      255
102
RTVSPost2010PropOp44
 70
     1
102
RTVSPost2010Prop45
280
     0
102
RTVSPost2010PropOp45
 70
     1
102
RTVSPost2010Prop46
 90
       50
102
RTVSPost2010PropOp46
 70
     1
102
RTVSPost2010Prop47
 90
       50
102
RTVSPost2010PropOp47
 70
     1
102
RTVSPost2010Prop48
 90
       50
102
RTVSPost2010PropOp48
 70
     1
102
RTVSPost2010Prop49
280
     0
102
RTVSPost2010PropOp49
 70
     1
102
RTVSPost2010Prop50
 90
       50
102
RTVSPost2010PropOp50
 70
     1
102
RTVSPost2010Prop51ColorIndex
 90
      256
102
RTVSPost2010Prop51ColorRGB
 90
-16777216
102
RTVSPost2010PropOp51
 70
     0
102
RTVSPost2010Prop52
140
1.0
102
RTVSPost2010PropOp52
 70
     0
102
RTVSPost2010Prop53
 90
        2
102
RTVSPost2010PropOp53
 70
     1
102
RTVSPost2010Prop54
  1
strokes_ogs.tif
102
RTVSPost2010PropOp54
 70
     1
102
RTVSPost2010Prop55
280
     0
102
RTVSPost2010PropOp55
 70
     1
102
RTVSPost2010Prop56
140
1.0
102
RTVSPost2010PropOp56
 70
     1
102
RTVSPost2010Prop57
140
1.0
102
RTVSPost2010PropOp57
 70
     1
  0
XRECORD
  5
1084C
102
{ACAD_REACTORS
330
1084B
102
}
330
1084B
100
AcDbXrecord
280
     1
102
RTVSPost2010Prop28
280
     0
102
RTVSPost2010PropOp28
 70
     1
102
RTVSPost2010Prop29
280
     1
102
RTVSPost2010PropOp29
 70
     1
102
RTVSPost2010Prop30
280
     1
102
RTVSPost2010PropOp30
 70
     1
102
RTVSPost2010Prop31
280
     0
102
RTVSPost2010PropOp31
 70
     1
102
RTVSPost2010Prop32
280
     0
102
RTVSPost2010PropOp32
 70
     1
102
RTVSPost2010Prop33
280
     0
102
RTVSPost2010PropOp33
 70
     1
102
RTVSPost2010Prop34
280
     0
102
RTVSPost2010PropOp34
 70
     1
102
RTVSPost2010Prop35
280
     0
102
RTVSPost2010PropOp35
 70
     1
102
RTVSPost2010Prop36
280
     0
102
RTVSPost2010PropOp36
 70
     1
102
RTVSPost2010Prop37
 90
       50
102
RTVSPost2010PropOp37
 70
     1
102
RTVSPost2010Prop38
140
0.0
102
RTVSPost2010PropOp38
 70
     1
102
RTVSPost2010Prop39
140
1.0
102
RTVSPost2010PropOp39
 70
     1
102
RTVSPost2010Prop40
 90
        0
102
RTVSPost2010PropOp40
 70
     1
102
RTVSPost2010Prop41ColorIndex
 90
       18
102
RTVSPost2010Prop41ColorRGB
 90
        0
102
RTVSPost2010PropOp41
 70
     1
102
RTVSPost2010Prop42
 90
       50
102
RTVSPost2010PropOp42
 70
     1
102
RTVSPost2010Prop43
 90
        3
102
RTVSPost2010PropOp43
 70
     1
102
RTVSPost2010Prop44ColorIndex
 90
        5
102
RTVSPost2010Prop44ColorRGB
 90
      255
102
RTVSPost2010PropOp44
 70
     1
102
RTVSPost2010Prop45
280
     0
102
RTVSPost2010PropOp45
 70
     1
102
RTVSPost2010Prop46
 90
       50
102
RTVSPost2010PropOp46
 70
     1
102
RTVSPost2010Prop47
 90
       50
102
RTVSPost2010PropOp47
 70
     1
102
RTVSPost2010Prop48
 90
       50
102
RTVSPost2010PropOp48
 70
     1
102
RTVSPost2010Prop49
280
     0
102
RTVSPost2010PropOp49
 70
     1
102
RTVSPost2010Prop50
 90
       50
102
RTVSPost2010PropOp50
 70
     1
102
RTVSPost2010Prop51ColorIndex
 90
      256
102
RTVSPost2010Prop51ColorRGB
 90
-16777216
102
RTVSPost2010PropOp51
 70
     0
102
RTVSPost2010Prop52
140
1.0
102
RTVSPost2010PropOp52
 70
     0
102
RTVSPost2010Prop53
 90
        2
102
RTVSPost2010PropOp53
 70
     1
102
RTVSPost2010Prop54
  1
strokes_ogs.tif
102
RTVSPost2010PropOp54
 70
     1
102
RTVSPost2010Prop55
280
     0
102
RTVSPost2010PropOp55
 70
     1
102
RTVSPost2010Prop56
140
1.0
102
RTVSPost2010PropOp56
 70
     1
102
RTVSPost2010Prop57
140
1.0
102
RTVSPost2010PropOp57
 70
     1
  0
XRECORD
  5
1086E
102
{ACAD_REACTORS
330
1086D
102
}
330
1086D
100
AcDbXrecord
280
     1
102
RTVSPost2010Prop28
280
     0
102
RTVSPost2010PropOp28
 70
     1
102
RTVSPost2010Prop29
280
     1
102
RTVSPost2010PropOp29
 70
     1
102
RTVSPost2010Prop30
280
     1
102
RTVSPost2010PropOp30
 70
     1
102
RTVSPost2010Prop31
280
     0
102
RTVSPost2010PropOp31
 70
     1
102
RTVSPost2010Prop32
280
     0
102
RTVSPost2010PropOp32
 70
     1
102
RTVSPost2010Prop33
280
     0
102
RTVSPost2010PropOp33
 70
     1
102
RTVSPost2010Prop34
280
     0
102
RTVSPost2010PropOp34
 70
     1
102
RTVSPost2010Prop35
280
     0
102
RTVSPost2010PropOp35
 70
     1
102
RTVSPost2010Prop36
280
     0
102
RTVSPost2010PropOp36
 70
     1
102
RTVSPost2010Prop37
 90
       50
102
RTVSPost2010PropOp37
 70
     1
102
RTVSPost2010Prop38
140
0.0
102
RTVSPost2010PropOp38
 70
     1
102
RTVSPost2010Prop39
140
1.0
102
RTVSPost2010PropOp39
 70
     1
102
RTVSPost2010Prop40
 90
        0
102
RTVSPost2010PropOp40
 70
     1
102
RTVSPost2010Prop41ColorIndex
 90
       18
102
RTVSPost2010Prop41ColorRGB
 90
        0
102
RTVSPost2010PropOp41
 70
     1
102
RTVSPost2010Prop42
 90
       50
102
RTVSPost2010PropOp42
 70
     1
102
RTVSPost2010Prop43
 90
        3
102
RTVSPost2010PropOp43
 70
     1
102
RTVSPost2010Prop44ColorIndex
 90
        5
102
RTVSPost2010Prop44ColorRGB
 90
      255
102
RTVSPost2010PropOp44
 70
     1
102
RTVSPost2010Prop45
280
     0
102
RTVSPost2010PropOp45
 70
     1
102
RTVSPost2010Prop46
 90
       50
102
RTVSPost2010PropOp46
 70
     1
102
RTVSPost2010Prop47
 90
       50
102
RTVSPost2010PropOp47
 70
     1
102
RTVSPost2010Prop48
 90
       50
102
RTVSPost2010PropOp48
 70
     1
102
RTVSPost2010Prop49
280
     0
102
RTVSPost2010PropOp49
 70
     1
102
RTVSPost2010Prop50
 90
       50
102
RTVSPost2010PropOp50
 70
     1
102
RTVSPost2010Prop51ColorIndex
 90
      256
102
RTVSPost2010Prop51ColorRGB
 90
-16777216
102
RTVSPost2010PropOp51
 70
     0
102
RTVSPost2010Prop52
140
1.0
102
RTVSPost2010PropOp52
 70
     0
102
RTVSPost2010Prop53
 90
        2
102
RTVSPost2010PropOp53
 70
     1
102
RTVSPost2010Prop54
  1
strokes_ogs.tif
102
RTVSPost2010PropOp54
 70
     1
102
RTVSPost2010Prop55
280
     0
102
RTVSPost2010PropOp55
 70
     1
102
RTVSPost2010Prop56
140
1.0
102
RTVSPost2010PropOp56
 70
     1
102
RTVSPost2010Prop57
140
1.0
102
RTVSPost2010PropOp57
 70
     1
  0
XRECORD
  5
10866
102
{ACAD_REACTORS
330
10865
102
}
330
10865
100
AcDbXrecord
280
     1
102
RTVSPost2010Prop28
280
     0
102
RTVSPost2010PropOp28
 70
     1
102
RTVSPost2010Prop29
280
     1
102
RTVSPost2010PropOp29
 70
     1
102
RTVSPost2010Prop30
280
     1
102
RTVSPost2010PropOp30
 70
     1
102
RTVSPost2010Prop31
280
     0
102
RTVSPost2010PropOp31
 70
     1
102
RTVSPost2010Prop32
280
     0
102
RTVSPost2010PropOp32
 70
     1
102
RTVSPost2010Prop33
280
     0
102
RTVSPost2010PropOp33
 70
     1
102
RTVSPost2010Prop34
280
     0
102
RTVSPost2010PropOp34
 70
     1
102
RTVSPost2010Prop35
280
     0
102
RTVSPost2010PropOp35
 70
     1
102
RTVSPost2010Prop36
280
     0
102
RTVSPost2010PropOp36
 70
     1
102
RTVSPost2010Prop37
 90
       50
102
RTVSPost2010PropOp37
 70
     1
102
RTVSPost2010Prop38
140
0.0
102
RTVSPost2010PropOp38
 70
     1
102
RTVSPost2010Prop39
140
1.0
102
RTVSPost2010PropOp39
 70
     1
102
RTVSPost2010Prop40
 90
        0
102
RTVSPost2010PropOp40
 70
     1
102
RTVSPost2010Prop41ColorIndex
 90
       18
102
RTVSPost2010Prop41ColorRGB
 90
        0
102
RTVSPost2010PropOp41
 70
     1
102
RTVSPost2010Prop42
 90
       50
102
RTVSPost2010PropOp42
 70
     1
102
RTVSPost2010Prop43
 90
        3
102
RTVSPost2010PropOp43
 70
     1
102
RTVSPost2010Prop44ColorIndex
 90
        5
102
RTVSPost2010Prop44ColorRGB
 90
      255
102
RTVSPost2010PropOp44
 70
     1
102
RTVSPost2010Prop45
280
     0
102
RTVSPost2010PropOp45
 70
     1
102
RTVSPost2010Prop46
 90
       50
102
RTVSPost2010PropOp46
 70
     1
102
RTVSPost2010Prop47
 90
       50
102
RTVSPost2010PropOp47
 70
     1
102
RTVSPost2010Prop48
 90
       50
102
RTVSPost2010PropOp48
 70
     1
102
RTVSPost2010Prop49
280
     0
102
RTVSPost2010PropOp49
 70
     1
102
RTVSPost2010Prop50
 90
       50
102
RTVSPost2010PropOp50
 70
     1
102
RTVSPost2010Prop51ColorIndex
 90
      256
102
RTVSPost2010Prop51ColorRGB
 90
-16777216
102
RTVSPost2010PropOp51
 70
     0
102
RTVSPost2010Prop52
140
1.0
102
RTVSPost2010PropOp52
 70
     0
102
RTVSPost2010Prop53
 90
        2
102
RTVSPost2010PropOp53
 70
     1
102
RTVSPost2010Prop54
  1
strokes_ogs.tif
102
RTVSPost2010PropOp54
 70
     1
102
RTVSPost2010Prop55
280
     0
102
RTVSPost2010PropOp55
 70
     1
102
RTVSPost2010Prop56
140
1.0
102
RTVSPost2010PropOp56
 70
     1
102
RTVSPost2010Prop57
140
1.0
102
RTVSPost2010PropOp57
 70
     1
  0
XRECORD
  5
10860
102
{ACAD_REACTORS
330
1085F
102
}
330
1085F
100
AcDbXrecord
280
     1
102
RTVSPost2010Prop28
280
     0
102
RTVSPost2010PropOp28
 70
     1
102
RTVSPost2010Prop29
280
     1
102
RTVSPost2010PropOp29
 70
     1
102
RTVSPost2010Prop30
280
     1
102
RTVSPost2010PropOp30
 70
     1
102
RTVSPost2010Prop31
280
     0
102
RTVSPost2010PropOp31
 70
     1
102
RTVSPost2010Prop32
280
     0
102
RTVSPost2010PropOp32
 70
     1
102
RTVSPost2010Prop33
280
     0
102
RTVSPost2010PropOp33
 70
     1
102
RTVSPost2010Prop34
280
     0
102
RTVSPost2010PropOp34
 70
     1
102
RTVSPost2010Prop35
280
     0
102
RTVSPost2010PropOp35
 70
     1
102
RTVSPost2010Prop36
280
     0
102
RTVSPost2010PropOp36
 70
     1
102
RTVSPost2010Prop37
 90
       50
102
RTVSPost2010PropOp37
 70
     1
102
RTVSPost2010Prop38
140
0.0
102
RTVSPost2010PropOp38
 70
     1
102
RTVSPost2010Prop39
140
1.0
102
RTVSPost2010PropOp39
 70
     1
102
RTVSPost2010Prop40
 90
        0
102
RTVSPost2010PropOp40
 70
     1
102
RTVSPost2010Prop41ColorIndex
 90
       18
102
RTVSPost2010Prop41ColorRGB
 90
        0
102
RTVSPost2010PropOp41
 70
     1
102
RTVSPost2010Prop42
 90
       50
102
RTVSPost2010PropOp42
 70
     1
102
RTVSPost2010Prop43
 90
        3
102
RTVSPost2010PropOp43
 70
     1
102
RTVSPost2010Prop44ColorIndex
 90
        5
102
RTVSPost2010Prop44ColorRGB
 90
      255
102
RTVSPost2010PropOp44
 70
     1
102
RTVSPost2010Prop45
280
     0
102
RTVSPost2010PropOp45
 70
     1
102
RTVSPost2010Prop46
 90
       50
102
RTVSPost2010PropOp46
 70
     1
102
RTVSPost2010Prop47
 90
       50
102
RTVSPost2010PropOp47
 70
     1
102
RTVSPost2010Prop48
 90
       50
102
RTVSPost2010PropOp48
 70
     1
102
RTVSPost2010Prop49
280
     0
102
RTVSPost2010PropOp49
 70
     1
102
RTVSPost2010Prop50
 90
       50
102
RTVSPost2010PropOp50
 70
     1
102
RTVSPost2010Prop51ColorIndex
 90
      256
102
RTVSPost2010Prop51ColorRGB
 90
-16777216
102
RTVSPost2010PropOp51
 70
     0
102
RTVSPost2010Prop52
140
1.0
102
RTVSPost2010PropOp52
 70
     0
102
RTVSPost2010Prop53
 90
        2
102
RTVSPost2010PropOp53
 70
     1
102
RTVSPost2010Prop54
  1
strokes_ogs.tif
102
RTVSPost2010PropOp54
 70
     1
102
RTVSPost2010Prop55
280
     0
102
RTVSPost2010PropOp55
 70
     1
102
RTVSPost2010Prop56
140
1.0
102
RTVSPost2010PropOp56
 70
     1
102
RTVSPost2010Prop57
140
1.0
102
RTVSPost2010PropOp57
 70
     1
  0
XRECORD
  5
10868
102
{ACAD_REACTORS
330
10867
102
}
330
10867
100
AcDbXrecord
280
     1
102
RTVSPost2010Prop28
280
     0
102
RTVSPost2010PropOp28
 70
     1
102
RTVSPost2010Prop29
280
     1
102
RTVSPost2010PropOp29
 70
     1
102
RTVSPost2010Prop30
280
     1
102
RTVSPost2010PropOp30
 70
     1
102
RTVSPost2010Prop31
280
     0
102
RTVSPost2010PropOp31
 70
     1
102
RTVSPost2010Prop32
280
     0
102
RTVSPost2010PropOp32
 70
     1
102
RTVSPost2010Prop33
280
     0
102
RTVSPost2010PropOp33
 70
     1
102
RTVSPost2010Prop34
280
     0
102
RTVSPost2010PropOp34
 70
     1
102
RTVSPost2010Prop35
280
     0
102
RTVSPost2010PropOp35
 70
     1
102
RTVSPost2010Prop36
280
     0
102
RTVSPost2010PropOp36
 70
     1
102
RTVSPost2010Prop37
 90
       50
102
RTVSPost2010PropOp37
 70
     1
102
RTVSPost2010Prop38
140
0.0
102
RTVSPost2010PropOp38
 70
     1
102
RTVSPost2010Prop39
140
1.0
102
RTVSPost2010PropOp39
 70
     1
102
RTVSPost2010Prop40
 90
        0
102
RTVSPost2010PropOp40
 70
     1
102
RTVSPost2010Prop41ColorIndex
 90
       18
102
RTVSPost2010Prop41ColorRGB
 90
        0
102
RTVSPost2010PropOp41
 70
     1
102
RTVSPost2010Prop42
 90
       50
102
RTVSPost2010PropOp42
 70
     1
102
RTVSPost2010Prop43
 90
        3
102
RTVSPost2010PropOp43
 70
     1
102
RTVSPost2010Prop44ColorIndex
 90
        5
102
RTVSPost2010Prop44ColorRGB
 90
      255
102
RTVSPost2010PropOp44
 70
     1
102
RTVSPost2010Prop45
280
     0
102
RTVSPost2010PropOp45
 70
     1
102
RTVSPost2010Prop46
 90
       50
102
RTVSPost2010PropOp46
 70
     1
102
RTVSPost2010Prop47
 90
       50
102
RTVSPost2010PropOp47
 70
     1
102
RTVSPost2010Prop48
 90
       50
102
RTVSPost2010PropOp48
 70
     1
102
RTVSPost2010Prop49
280
     0
102
RTVSPost2010PropOp49
 70
     1
102
RTVSPost2010Prop50
 90
       50
102
RTVSPost2010PropOp50
 70
     1
102
RTVSPost2010Prop51ColorIndex
 90
      256
102
RTVSPost2010Prop51ColorRGB
 90
-16777216
102
RTVSPost2010PropOp51
 70
     0
102
RTVSPost2010Prop52
140
1.0
102
RTVSPost2010PropOp52
 70
     0
102
RTVSPost2010Prop53
 90
        2
102
RTVSPost2010PropOp53
 70
     1
102
RTVSPost2010Prop54
  1
strokes_ogs.tif
102
RTVSPost2010PropOp54
 70
     1
102
RTVSPost2010Prop55
280
     0
102
RTVSPost2010PropOp55
 70
     1
102
RTVSPost2010Prop56
140
1.0
102
RTVSPost2010PropOp56
 70
     1
102
RTVSPost2010Prop57
140
1.0
102
RTVSPost2010PropOp57
 70
     1
  0
XRECORD
  5
10858
102
{ACAD_REACTORS
330
10857
102
}
330
10857
100
AcDbXrecord
280
     1
102
RTVSPost2010Prop28
280
     0
102
RTVSPost2010PropOp28
 70
     1
102
RTVSPost2010Prop29
280
     1
102
RTVSPost2010PropOp29
 70
     1
102
RTVSPost2010Prop30
280
     1
102
RTVSPost2010PropOp30
 70
     1
102
RTVSPost2010Prop31
280
     0
102
RTVSPost2010PropOp31
 70
     1
102
RTVSPost2010Prop32
280
     0
102
RTVSPost2010PropOp32
 70
     1
102
RTVSPost2010Prop33
280
     0
102
RTVSPost2010PropOp33
 70
     1
102
RTVSPost2010Prop34
280
     0
102
RTVSPost2010PropOp34
 70
     1
102
RTVSPost2010Prop35
280
     0
102
RTVSPost2010PropOp35
 70
     1
102
RTVSPost2010Prop36
280
     0
102
RTVSPost2010PropOp36
 70
     1
102
RTVSPost2010Prop37
 90
       50
102
RTVSPost2010PropOp37
 70
     1
102
RTVSPost2010Prop38
140
0.0
102
RTVSPost2010PropOp38
 70
     1
102
RTVSPost2010Prop39
140
1.0
102
RTVSPost2010PropOp39
 70
     1
102
RTVSPost2010Prop40
 90
        0
102
RTVSPost2010PropOp40
 70
     1
102
RTVSPost2010Prop41ColorIndex
 90
       18
102
RTVSPost2010Prop41ColorRGB
 90
        0
102
RTVSPost2010PropOp41
 70
     1
102
RTVSPost2010Prop42
 90
       50
102
RTVSPost2010PropOp42
 70
     1
102
RTVSPost2010Prop43
 90
        3
102
RTVSPost2010PropOp43
 70
     1
102
RTVSPost2010Prop44ColorIndex
 90
        5
102
RTVSPost2010Prop44ColorRGB
 90
      255
102
RTVSPost2010PropOp44
 70
     1
102
RTVSPost2010Prop45
280
     0
102
RTVSPost2010PropOp45
 70
     1
102
RTVSPost2010Prop46
 90
       50
102
RTVSPost2010PropOp46
 70
     1
102
RTVSPost2010Prop47
 90
       50
102
RTVSPost2010PropOp47
 70
     1
102
RTVSPost2010Prop48
 90
       50
102
RTVSPost2010PropOp48
 70
     1
102
RTVSPost2010Prop49
280
     0
102
RTVSPost2010PropOp49
 70
     1
102
RTVSPost2010Prop50
 90
       50
102
RTVSPost2010PropOp50
 70
     1
102
RTVSPost2010Prop51ColorIndex
 90
      256
102
RTVSPost2010Prop51ColorRGB
 90
-16777216
102
RTVSPost2010PropOp51
 70
     0
102
RTVSPost2010Prop52
140
1.0
102
RTVSPost2010PropOp52
 70
     0
102
RTVSPost2010Prop53
 90
        2
102
RTVSPost2010PropOp53
 70
     1
102
RTVSPost2010Prop54
  1
strokes_ogs.tif
102
RTVSPost2010PropOp54
 70
     1
102
RTVSPost2010Prop55
280
     0
102
RTVSPost2010PropOp55
 70
     1
102
RTVSPost2010Prop56
140
1.0
102
RTVSPost2010PropOp56
 70
     1
102
RTVSPost2010Prop57
140
1.0
102
RTVSPost2010PropOp57
 70
     1
  0
XRECORD
  5
10878
102
{ACAD_REACTORS
330
10877
102
}
330
10877
100
AcDbXrecord
280
     1
102
RTVSPost2010Prop28
280
     0
102
RTVSPost2010PropOp28
 70
     1
102
RTVSPost2010Prop29
280
     1
102
RTVSPost2010PropOp29
 70
     1
102
RTVSPost2010Prop30
280
     1
102
RTVSPost2010PropOp30
 70
     1
102
RTVSPost2010Prop31
280
     0
102
RTVSPost2010PropOp31
 70
     1
102
RTVSPost2010Prop32
280
     0
102
RTVSPost2010PropOp32
 70
     1
102
RTVSPost2010Prop33
280
     0
102
RTVSPost2010PropOp33
 70
     1
102
RTVSPost2010Prop34
280
     0
102
RTVSPost2010PropOp34
 70
     1
102
RTVSPost2010Prop35
280
     0
102
RTVSPost2010PropOp35
 70
     1
102
RTVSPost2010Prop36
280
     0
102
RTVSPost2010PropOp36
 70
     1
102
RTVSPost2010Prop37
 90
       50
102
RTVSPost2010PropOp37
 70
     1
102
RTVSPost2010Prop38
140
0.0
102
RTVSPost2010PropOp38
 70
     1
102
RTVSPost2010Prop39
140
1.0
102
RTVSPost2010PropOp39
 70
     1
102
RTVSPost2010Prop40
 90
        0
102
RTVSPost2010PropOp40
 70
     1
102
RTVSPost2010Prop41ColorIndex
 90
       18
102
RTVSPost2010Prop41ColorRGB
 90
        0
102
RTVSPost2010PropOp41
 70
     1
102
RTVSPost2010Prop42
 90
       50
102
RTVSPost2010PropOp42
 70
     1
102
RTVSPost2010Prop43
 90
        3
102
RTVSPost2010PropOp43
 70
     1
102
RTVSPost2010Prop44ColorIndex
 90
        5
102
RTVSPost2010Prop44ColorRGB
 90
      255
102
RTVSPost2010PropOp44
 70
     1
102
RTVSPost2010Prop45
280
     0
102
RTVSPost2010PropOp45
 70
     1
102
RTVSPost2010Prop46
 90
       50
102
RTVSPost2010PropOp46
 70
     1
102
RTVSPost2010Prop47
 90
       50
102
RTVSPost2010PropOp47
 70
     1
102
RTVSPost2010Prop48
 90
       50
102
RTVSPost2010PropOp48
 70
     1
102
RTVSPost2010Prop49
280
     0
102
RTVSPost2010PropOp49
 70
     1
102
RTVSPost2010Prop50
 90
       50
102
RTVSPost2010PropOp50
 70
     1
102
RTVSPost2010Prop51ColorIndex
 90
      256
102
RTVSPost2010Prop51ColorRGB
 90
-16777216
102
RTVSPost2010PropOp51
 70
     0
102
RTVSPost2010Prop52
140
1.0
102
RTVSPost2010PropOp52
 70
     0
102
RTVSPost2010Prop53
 90
        2
102
RTVSPost2010PropOp53
 70
     1
102
RTVSPost2010Prop54
  1
strokes_ogs.tif
102
RTVSPost2010PropOp54
 70
     1
102
RTVSPost2010Prop55
280
     0
102
RTVSPost2010PropOp55
 70
     1
102
RTVSPost2010Prop56
140
1.0
102
RTVSPost2010PropOp56
 70
     1
102
RTVSPost2010Prop57
140
1.0
102
RTVSPost2010PropOp57
 70
     1
  0
XRECORD
  5
10876
102
{ACAD_REACTORS
330
10875
102
}
330
10875
100
AcDbXrecord
280
     1
102
RTVSPost2010Prop28
280
     0
102
RTVSPost2010PropOp28
 70
     1
102
RTVSPost2010Prop29
280
     1
102
RTVSPost2010PropOp29
 70
     1
102
RTVSPost2010Prop30
280
     1
102
RTVSPost2010PropOp30
 70
     1
102
RTVSPost2010Prop31
280
     0
102
RTVSPost2010PropOp31
 70
     1
102
RTVSPost2010Prop32
280
     0
102
RTVSPost2010PropOp32
 70
     1
102
RTVSPost2010Prop33
280
     0
102
RTVSPost2010PropOp33
 70
     1
102
RTVSPost2010Prop34
280
     0
102
RTVSPost2010PropOp34
 70
     1
102
RTVSPost2010Prop35
280
     0
102
RTVSPost2010PropOp35
 70
     1
102
RTVSPost2010Prop36
280
     0
102
RTVSPost2010PropOp36
 70
     1
102
RTVSPost2010Prop37
 90
       50
102
RTVSPost2010PropOp37
 70
     1
102
RTVSPost2010Prop38
140
0.0
102
RTVSPost2010PropOp38
 70
     1
102
RTVSPost2010Prop39
140
1.0
102
RTVSPost2010PropOp39
 70
     1
102
RTVSPost2010Prop40
 90
        0
102
RTVSPost2010PropOp40
 70
     1
102
RTVSPost2010Prop41ColorIndex
 90
       18
102
RTVSPost2010Prop41ColorRGB
 90
        0
102
RTVSPost2010PropOp41
 70
     1
102
RTVSPost2010Prop42
 90
       50
102
RTVSPost2010PropOp42
 70
     1
102
RTVSPost2010Prop43
 90
        3
102
RTVSPost2010PropOp43
 70
     1
102
RTVSPost2010Prop44ColorIndex
 90
        5
102
RTVSPost2010Prop44ColorRGB
 90
      255
102
RTVSPost2010PropOp44
 70
     1
102
RTVSPost2010Prop45
280
     0
102
RTVSPost2010PropOp45
 70
     1
102
RTVSPost2010Prop46
 90
       50
102
RTVSPost2010PropOp46
 70
     1
102
RTVSPost2010Prop47
 90
       50
102
RTVSPost2010PropOp47
 70
     1
102
RTVSPost2010Prop48
 90
       50
102
RTVSPost2010PropOp48
 70
     1
102
RTVSPost2010Prop49
280
     0
102
RTVSPost2010PropOp49
 70
     1
102
RTVSPost2010Prop50
 90
       50
102
RTVSPost2010PropOp50
 70
     1
102
RTVSPost2010Prop51ColorIndex
 90
      256
102
RTVSPost2010Prop51ColorRGB
 90
-16777216
102
RTVSPost2010PropOp51
 70
     0
102
RTVSPost2010Prop52
140
1.0
102
RTVSPost2010PropOp52
 70
     0
102
RTVSPost2010Prop53
 90
        2
102
RTVSPost2010PropOp53
 70
     1
102
RTVSPost2010Prop54
  1
strokes_ogs.tif
102
RTVSPost2010PropOp54
 70
     1
102
RTVSPost2010Prop55
280
     0
102
RTVSPost2010PropOp55
 70
     1
102
RTVSPost2010Prop56
140
1.0
102
RTVSPost2010PropOp56
 70
     1
102
RTVSPost2010Prop57
140
1.0
102
RTVSPost2010PropOp57
 70
     1
  0
XRECORD
  5
10870
102
{ACAD_REACTORS
330
1086F
102
}
330
1086F
100
AcDbXrecord
280
     1
102
RTVSPost2010Prop28
280
     0
102
RTVSPost2010PropOp28
 70
     1
102
RTVSPost2010Prop29
280
     1
102
RTVSPost2010PropOp29
 70
     1
102
RTVSPost2010Prop30
280
     1
102
RTVSPost2010PropOp30
 70
     1
102
RTVSPost2010Prop31
280
     0
102
RTVSPost2010PropOp31
 70
     1
102
RTVSPost2010Prop32
280
     0
102
RTVSPost2010PropOp32
 70
     1
102
RTVSPost2010Prop33
280
     0
102
RTVSPost2010PropOp33
 70
     1
102
RTVSPost2010Prop34
280
     0
102
RTVSPost2010PropOp34
 70
     1
102
RTVSPost2010Prop35
280
     0
102
RTVSPost2010PropOp35
 70
     1
102
RTVSPost2010Prop36
280
     0
102
RTVSPost2010PropOp36
 70
     1
102
RTVSPost2010Prop37
 90
       50
102
RTVSPost2010PropOp37
 70
     1
102
RTVSPost2010Prop38
140
0.0
102
RTVSPost2010PropOp38
 70
     1
102
RTVSPost2010Prop39
140
1.0
102
RTVSPost2010PropOp39
 70
     1
102
RTVSPost2010Prop40
 90
        0
102
RTVSPost2010PropOp40
 70
     1
102
RTVSPost2010Prop41ColorIndex
 90
       18
102
RTVSPost2010Prop41ColorRGB
 90
        0
102
RTVSPost2010PropOp41
 70
     1
102
RTVSPost2010Prop42
 90
       50
102
RTVSPost2010PropOp42
 70
     1
102
RTVSPost2010Prop43
 90
        3
102
RTVSPost2010PropOp43
 70
     1
102
RTVSPost2010Prop44ColorIndex
 90
        5
102
RTVSPost2010Prop44ColorRGB
 90
      255
102
RTVSPost2010PropOp44
 70
     1
102
RTVSPost2010Prop45
280
     0
102
RTVSPost2010PropOp45
 70
     1
102
RTVSPost2010Prop46
 90
       50
102
RTVSPost2010PropOp46
 70
     1
102
RTVSPost2010Prop47
 90
       50
102
RTVSPost2010PropOp47
 70
     1
102
RTVSPost2010Prop48
 90
       50
102
RTVSPost2010PropOp48
 70
     1
102
RTVSPost2010Prop49
280
     0
102
RTVSPost2010PropOp49
 70
     1
102
RTVSPost2010Prop50
 90
       50
102
RTVSPost2010PropOp50
 70
     1
102
RTVSPost2010Prop51ColorIndex
 90
      256
102
RTVSPost2010Prop51ColorRGB
 90
-16777216
102
RTVSPost2010PropOp51
 70
     0
102
RTVSPost2010Prop52
140
1.0
102
RTVSPost2010PropOp52
 70
     0
102
RTVSPost2010Prop53
 90
        2
102
RTVSPost2010PropOp53
 70
     1
102
RTVSPost2010Prop54
  1
strokes_ogs.tif
102
RTVSPost2010PropOp54
 70
     1
102
RTVSPost2010Prop55
280
     0
102
RTVSPost2010PropOp55
 70
     1
102
RTVSPost2010Prop56
140
1.0
102
RTVSPost2010PropOp56
 70
     1
102
RTVSPost2010Prop57
140
1.0
102
RTVSPost2010PropOp57
 70
     1
  0
XRECORD
  5
10872
102
{ACAD_REACTORS
330
10871
102
}
330
10871
100
AcDbXrecord
280
     1
102
RTVSPost2010Prop28
280
     0
102
RTVSPost2010PropOp28
 70
     1
102
RTVSPost2010Prop29
280
     1
102
RTVSPost2010PropOp29
 70
     1
102
RTVSPost2010Prop30
280
     1
102
RTVSPost2010PropOp30
 70
     1
102
RTVSPost2010Prop31
280
     0
102
RTVSPost2010PropOp31
 70
     1
102
RTVSPost2010Prop32
280
     0
102
RTVSPost2010PropOp32
 70
     1
102
RTVSPost2010Prop33
280
     0
102
RTVSPost2010PropOp33
 70
     1
102
RTVSPost2010Prop34
280
     0
102
RTVSPost2010PropOp34
 70
     1
102
RTVSPost2010Prop35
280
     0
102
RTVSPost2010PropOp35
 70
     1
102
RTVSPost2010Prop36
280
     0
102
RTVSPost2010PropOp36
 70
     1
102
RTVSPost2010Prop37
 90
       50
102
RTVSPost2010PropOp37
 70
     1
102
RTVSPost2010Prop38
140
0.0
102
RTVSPost2010PropOp38
 70
     1
102
RTVSPost2010Prop39
140
1.0
102
RTVSPost2010PropOp39
 70
     1
102
RTVSPost2010Prop40
 90
        0
102
RTVSPost2010PropOp40
 70
     1
102
RTVSPost2010Prop41ColorIndex
 90
       18
102
RTVSPost2010Prop41ColorRGB
 90
        0
102
RTVSPost2010PropOp41
 70
     1
102
RTVSPost2010Prop42
 90
       50
102
RTVSPost2010PropOp42
 70
     1
102
RTVSPost2010Prop43
 90
        3
102
RTVSPost2010PropOp43
 70
     1
102
RTVSPost2010Prop44ColorIndex
 90
        5
102
RTVSPost2010Prop44ColorRGB
 90
      255
102
RTVSPost2010PropOp44
 70
     1
102
RTVSPost2010Prop45
280
     0
102
RTVSPost2010PropOp45
 70
     1
102
RTVSPost2010Prop46
 90
       50
102
RTVSPost2010PropOp46
 70
     1
102
RTVSPost2010Prop47
 90
       50
102
RTVSPost2010PropOp47
 70
     1
102
RTVSPost2010Prop48
 90
       50
102
RTVSPost2010PropOp48
 70
     1
102
RTVSPost2010Prop49
280
     0
102
RTVSPost2010PropOp49
 70
     1
102
RTVSPost2010Prop50
 90
       50
102
RTVSPost2010PropOp50
 70
     1
102
RTVSPost2010Prop51ColorIndex
 90
      256
102
RTVSPost2010Prop51ColorRGB
 90
-16777216
102
RTVSPost2010PropOp51
 70
     0
102
RTVSPost2010Prop52
140
1.0
102
RTVSPost2010PropOp52
 70
     0
102
RTVSPost2010Prop53
 90
        2
102
RTVSPost2010PropOp53
 70
     1
102
RTVSPost2010Prop54
  1
strokes_ogs.tif
102
RTVSPost2010PropOp54
 70
     1
102
RTVSPost2010Prop55
280
     0
102
RTVSPost2010PropOp55
 70
     1
102
RTVSPost2010Prop56
140
1.0
102
RTVSPost2010PropOp56
 70
     1
102
RTVSPost2010Prop57
140
1.0
102
RTVSPost2010PropOp57
 70
     1
  0
XRECORD
  5
1085E
102
{ACAD_REACTORS
330
1085D
102
}
330
1085D
100
AcDbXrecord
280
     1
102
RTVSPost2010Prop28
280
     0
102
RTVSPost2010PropOp28
 70
     1
102
RTVSPost2010Prop29
280
     1
102
RTVSPost2010PropOp29
 70
     1
102
RTVSPost2010Prop30
280
     1
102
RTVSPost2010PropOp30
 70
     1
102
RTVSPost2010Prop31
280
     0
102
RTVSPost2010PropOp31
 70
     1
102
RTVSPost2010Prop32
280
     0
102
RTVSPost2010PropOp32
 70
     1
102
RTVSPost2010Prop33
280
     0
102
RTVSPost2010PropOp33
 70
     1
102
RTVSPost2010Prop34
280
     0
102
RTVSPost2010PropOp34
 70
     1
102
RTVSPost2010Prop35
280
     0
102
RTVSPost2010PropOp35
 70
     1
102
RTVSPost2010Prop36
280
     0
102
RTVSPost2010PropOp36
 70
     1
102
RTVSPost2010Prop37
 90
       50
102
RTVSPost2010PropOp37
 70
     1
102
RTVSPost2010Prop38
140
0.0
102
RTVSPost2010PropOp38
 70
     1
102
RTVSPost2010Prop39
140
1.0
102
RTVSPost2010PropOp39
 70
     1
102
RTVSPost2010Prop40
 90
        0
102
RTVSPost2010PropOp40
 70
     1
102
RTVSPost2010Prop41ColorIndex
 90
       18
102
RTVSPost2010Prop41ColorRGB
 90
        0
102
RTVSPost2010PropOp41
 70
     1
102
RTVSPost2010Prop42
 90
       50
102
RTVSPost2010PropOp42
 70
     1
102
RTVSPost2010Prop43
 90
        3
102
RTVSPost2010PropOp43
 70
     1
102
RTVSPost2010Prop44ColorIndex
 90
        5
102
RTVSPost2010Prop44ColorRGB
 90
      255
102
RTVSPost2010PropOp44
 70
     1
102
RTVSPost2010Prop45
280
     0
102
RTVSPost2010PropOp45
 70
     1
102
RTVSPost2010Prop46
 90
       50
102
RTVSPost2010PropOp46
 70
     1
102
RTVSPost2010Prop47
 90
       50
102
RTVSPost2010PropOp47
 70
     1
102
RTVSPost2010Prop48
 90
       50
102
RTVSPost2010PropOp48
 70
     1
102
RTVSPost2010Prop49
280
     0
102
RTVSPost2010PropOp49
 70
     1
102
RTVSPost2010Prop50
 90
       50
102
RTVSPost2010PropOp50
 70
     1
102
RTVSPost2010Prop51ColorIndex
 90
      256
102
RTVSPost2010Prop51ColorRGB
 90
-16777216
102
RTVSPost2010PropOp51
 70
     0
102
RTVSPost2010Prop52
140
1.0
102
RTVSPost2010PropOp52
 70
     0
102
RTVSPost2010Prop53
 90
        2
102
RTVSPost2010PropOp53
 70
     1
102
RTVSPost2010Prop54
  1
strokes_ogs.tif
102
RTVSPost2010PropOp54
 70
     1
102
RTVSPost2010Prop55
280
     0
102
RTVSPost2010PropOp55
 70
     1
102
RTVSPost2010Prop56
140
1.0
102
RTVSPost2010PropOp56
 70
     1
102
RTVSPost2010Prop57
140
1.0
102
RTVSPost2010PropOp57
 70
     1
  0
XRECORD
  5
1086C
102
{ACAD_REACTORS
330
1086B
102
}
330
1086B
100
AcDbXrecord
280
     1
102
RTVSPost2010Prop28
280
     0
102
RTVSPost2010PropOp28
 70
     1
102
RTVSPost2010Prop29
280
     1
102
RTVSPost2010PropOp29
 70
     1
102
RTVSPost2010Prop30
280
     1
102
RTVSPost2010PropOp30
 70
     1
102
RTVSPost2010Prop31
280
     0
102
RTVSPost2010PropOp31
 70
     1
102
RTVSPost2010Prop32
280
     0
102
RTVSPost2010PropOp32
 70
     1
102
RTVSPost2010Prop33
280
     0
102
RTVSPost2010PropOp33
 70
     1
102
RTVSPost2010Prop34
280
     0
102
RTVSPost2010PropOp34
 70
     1
102
RTVSPost2010Prop35
280
     0
102
RTVSPost2010PropOp35
 70
     1
102
RTVSPost2010Prop36
280
     0
102
RTVSPost2010PropOp36
 70
     1
102
RTVSPost2010Prop37
 90
       50
102
RTVSPost2010PropOp37
 70
     1
102
RTVSPost2010Prop38
140
0.0
102
RTVSPost2010PropOp38
 70
     1
102
RTVSPost2010Prop39
140
1.0
102
RTVSPost2010PropOp39
 70
     1
102
RTVSPost2010Prop40
 90
        0
102
RTVSPost2010PropOp40
 70
     1
102
RTVSPost2010Prop41ColorIndex
 90
       18
102
RTVSPost2010Prop41ColorRGB
 90
        0
102
RTVSPost2010PropOp41
 70
     1
102
RTVSPost2010Prop42
 90
       50
102
RTVSPost2010PropOp42
 70
     1
102
RTVSPost2010Prop43
 90
        3
102
RTVSPost2010PropOp43
 70
     1
102
RTVSPost2010Prop44ColorIndex
 90
        5
102
RTVSPost2010Prop44ColorRGB
 90
      255
102
RTVSPost2010PropOp44
 70
     1
102
RTVSPost2010Prop45
280
     0
102
RTVSPost2010PropOp45
 70
     1
102
RTVSPost2010Prop46
 90
       50
102
RTVSPost2010PropOp46
 70
     1
102
RTVSPost2010Prop47
 90
       50
102
RTVSPost2010PropOp47
 70
     1
102
RTVSPost2010Prop48
 90
       50
102
RTVSPost2010PropOp48
 70
     1
102
RTVSPost2010Prop49
280
     0
102
RTVSPost2010PropOp49
 70
     1
102
RTVSPost2010Prop50
 90
       50
102
RTVSPost2010PropOp50
 70
     1
102
RTVSPost2010Prop51ColorIndex
 90
      256
102
RTVSPost2010Prop51ColorRGB
 90
-16777216
102
RTVSPost2010PropOp51
 70
     0
102
RTVSPost2010Prop52
140
1.0
102
RTVSPost2010PropOp52
 70
     0
102
RTVSPost2010Prop53
 90
        2
102
RTVSPost2010PropOp53
 70
     1
102
RTVSPost2010Prop54
  1
strokes_ogs.tif
102
RTVSPost2010PropOp54
 70
     1
102
RTVSPost2010Prop55
280
     0
102
RTVSPost2010PropOp55
 70
     1
102
RTVSPost2010Prop56
140
1.0
102
RTVSPost2010PropOp56
 70
     1
102
RTVSPost2010Prop57
140
1.0
102
RTVSPost2010PropOp57
 70
     1
  0
XRECORD
  5
10874
102
{ACAD_REACTORS
330
10873
102
}
330
10873
100
AcDbXrecord
280
     1
102
RTVSPost2010Prop28
280
     0
102
RTVSPost2010PropOp28
 70
     1
102
RTVSPost2010Prop29
280
     1
102
RTVSPost2010PropOp29
 70
     1
102
RTVSPost2010Prop30
280
     1
102
RTVSPost2010PropOp30
 70
     1
102
RTVSPost2010Prop31
280
     0
102
RTVSPost2010PropOp31
 70
     1
102
RTVSPost2010Prop32
280
     0
102
RTVSPost2010PropOp32
 70
     1
102
RTVSPost2010Prop33
280
     0
102
RTVSPost2010PropOp33
 70
     1
102
RTVSPost2010Prop34
280
     0
102
RTVSPost2010PropOp34
 70
     1
102
RTVSPost2010Prop35
280
     0
102
RTVSPost2010PropOp35
 70
     1
102
RTVSPost2010Prop36
280
     0
102
RTVSPost2010PropOp36
 70
     1
102
RTVSPost2010Prop37
 90
       50
102
RTVSPost2010PropOp37
 70
     1
102
RTVSPost2010Prop38
140
0.0
102
RTVSPost2010PropOp38
 70
     1
102
RTVSPost2010Prop39
140
1.0
102
RTVSPost2010PropOp39
 70
     1
102
RTVSPost2010Prop40
 90
        0
102
RTVSPost2010PropOp40
 70
     1
102
RTVSPost2010Prop41ColorIndex
 90
       18
102
RTVSPost2010Prop41ColorRGB
 90
        0
102
RTVSPost2010PropOp41
 70
     1
102
RTVSPost2010Prop42
 90
       50
102
RTVSPost2010PropOp42
 70
     1
102
RTVSPost2010Prop43
 90
        3
102
RTVSPost2010PropOp43
 70
     1
102
RTVSPost2010Prop44ColorIndex
 90
        5
102
RTVSPost2010Prop44ColorRGB
 90
      255
102
RTVSPost2010PropOp44
 70
     1
102
RTVSPost2010Prop45
280
     0
102
RTVSPost2010PropOp45
 70
     1
102
RTVSPost2010Prop46
 90
       50
102
RTVSPost2010PropOp46
 70
     1
102
RTVSPost2010Prop47
 90
       50
102
RTVSPost2010PropOp47
 70
     1
102
RTVSPost2010Prop48
 90
       50
102
RTVSPost2010PropOp48
 70
     1
102
RTVSPost2010Prop49
280
     0
102
RTVSPost2010PropOp49
 70
     1
102
RTVSPost2010Prop50
 90
       50
102
RTVSPost2010PropOp50
 70
     1
102
RTVSPost2010Prop51ColorIndex
 90
      256
102
RTVSPost2010Prop51ColorRGB
 90
-16777216
102
RTVSPost2010PropOp51
 70
     0
102
RTVSPost2010Prop52
140
1.0
102
RTVSPost2010PropOp52
 70
     0
102
RTVSPost2010Prop53
 90
        2
102
RTVSPost2010PropOp53
 70
     1
102
RTVSPost2010Prop54
  1
strokes_ogs.tif
102
RTVSPost2010PropOp54
 70
     1
102
RTVSPost2010Prop55
280
     0
102
RTVSPost2010PropOp55
 70
     1
102
RTVSPost2010Prop56
140
1.0
102
RTVSPost2010PropOp56
 70
     1
102
RTVSPost2010Prop57
140
1.0
102
RTVSPost2010PropOp57
 70
     1
  0
ENDSEC
  0
EOF
